Скачать через торрент музыку Strangeways - Age Of Reason - 2011, FLAC бесплатно без регистрации torrent

Если у вас наблюдаются проблемы со скриншотами, переходом по ссылками, скачиванием торрентов - проблемы в блокировщике рекламы AdBlock. #хорошегоДня!


Статистика раздачи
Размер:  363 MB   |    Зарегистрирован:  5 лет   |    .torrent скачан:  9 раз   |   
Раздают:  1  
   
Загрузка...
 
Автор Сообщение

Galfimbul

avatar Galfimbul


STRANGEWAYS / Age Of Reason

Жанр: AOR Melodic Hard Rock
Страна-производитель диска: UK
Год издания: 2011
Издатель (лейбл): Dangerous Dog Records
Номер по каталогу: DDRCD01001
Страна: UK
Аудиокодек: FLAC (*.flac)
Тип рипа: image+.cue
Битрейт аудио: lossless
Продолжительность: 00:54:42
Источник (релизер): Zak Stevens
Наличие сканов в содержимом раздачи: да
Треклист:
1. The Sentinel
2. Run
3. Playin' It Over
4. As We Fall
5. Call
6. End of the Day
7. Alive Again
8. Silver Moon
9. Frozen
10. Long Road
Exact Audio Copy V1.0 beta 3 from 29. August 2011

Отчёт EAC об извлечении, выполненном 30. октября 2012, 23:20

Strangeways / Age Of Reason

Дисковод: MATSHITADVD-RAM UJ-861H Adapter: 0 ID: 0

Режим чтения : ДостоверностьИспользование точного потока : ДаОтключение кэша аудио : ДаИспользование указателей C2 : Нет

Коррекция смещения при чтении : 102Способность читать области Lead-in и Lead-out : НетЗаполнение пропущенных сэмплов тишиной : ДаУдаление блоков с тишиной в начале и конце : НетПри вычислениях CRC использовались нулевые сэмплы : ДаИнтерфейс : Встроенный Win32-интерфейс для Win NT/2000

Выходной формат : Внутренние WAV-операцииФормат сэмплов : 44.100 Гц; 16 бит; стерео

TOC извлечённого CD

Трек | Старт | Длительность | Начальный сектор | Конечный сектор --------------------------------------------------------------------- 1 | 0:00.00 | 4:18.33 | 0 | 19382 2 | 4:18.33 | 6:27.05 | 19383 | 48412 3 | 10:45.38 | 5:12.37 | 48413 | 71849 4 | 15:58.00 | 6:31.66 | 71850 | 101240 5 | 22:29.66 | 5:28.06 | 101241 | 125846 6 | 27:57.72 | 4:49.74 | 125847 | 147595 7 | 32:47.71 | 5:15.35 | 147596 | 171255 8 | 38:03.31 | 7:17.72 | 171256 | 204102 9 | 45:21.28 | 5:26.37 | 204103 | 228589 10 | 50:47.65 | 3:54.41 | 228590 | 246180

Характеристики диапазона извлечения и сообщения об ошибках

Выбранный диапазон

Имя файла D:\Исходные торренты\Strangeways - Age Of Reason.wav

Пиковый уровень 100.0 % Скорость извлечения 2.5 X Качество диапазона 100.0 % CRC теста 4AE95F62 CRC копии 4AE95F62 Копирование... OK

Ошибок не произошло

AccurateRip: сводка

Трек 1 : извлечено точно (доверие 1) [582BC54E] (AR v2)Трек 2 : извлечено точно (доверие 1) [94F4120A] (AR v2)Трек 3 : извлечено точно (доверие 1) [38AA4A1C] (AR v2)Трек 4 : извлечено точно (доверие 1) [F0C39370] (AR v2)Трек 5 : извлечено точно (доверие 1) [4B42D2BC] (AR v2)Трек 6 : извлечено точно (доверие 1) [3755A25B] (AR v2)Трек 7 : извлечено точно (доверие 1) [A952098B] (AR v2)Трек 8 : извлечено точно (доверие 1) [68514438] (AR v2)Трек 9 : извлечено точно (доверие 1) [05986720] (AR v2)Трек 10 : извлечено точно (доверие 1) [BBBA3E21] (AR v2)

Все треки извлечены точно

Конец отчёта
Terry Brock vocals
Ian James Stewart guitar
David Stewart bass, backing vocals
Dave Moore keyboards
Jim Drummond drums


Трекер:  [ 11-Ноя-2012 14:53 ]

  

Скачать .torrent

Размер .torrent файла 15 KB


Размер: 363 MB
Хэш (hash) релиза: 1e8658a463aec03c2109e806c4faf81d47f27816

Еще никто не оставлял запись к записи скачать торрент Strangeways - Age Of Reason - 2011, FLAC . Будь первым!

!Обратная связь