Скачать через торрент музыку Kinki Stunt - Kinki Stunt - 1994 бесплатно без регистрации torrent

Если у вас наблюдаются проблемы со скриншотами, переходом по ссылками, скачиванием торрентов - проблемы в блокировщике рекламы AdBlock. #хорошегоДня!


Статистика раздачи
Размер:  388 MB   |    Зарегистрирован:  5 лет   |    .torrent скачан:  15 раз   |   
Раздают:  1  
   
Загрузка...
 
Автор Сообщение

Galfimbul

avatar Galfimbul


Kinki Stunt / Kinki Stunt

Жанр: Hard Rock / Glam
Год издания: 1994 (Reissue 2009)
Издатель (лейбл): Retrospect Records
Страна: USA
Аудиокодек: FLAC (*.flac)
Тип рипа: image+.cue
Битрейт аудио: lossless
Продолжительность: 52:53
Источник (релизер): MetroCK / Kantor
Наличие сканов в содержимом раздачи: да
Треклист:

1. Johnny Law (Previously Unreleased Alternate Version)
2. Devil's Grin (Previously Unreleased Alternate Version)
3. Dreams
4. For A Little While
5. I Would Fly
6. Bad Situation (Previously Unreleased)
7. So Long
8. Fat City
9. Shitfaced
10. For A Little While (Previously Unreleased Alternate Version)
11. Dreams (Previously Unreleased Alternate Version)
12. Devil's Grin
13. Johnny Law
Exact Audio Copy V0.99 prebeta 5 from 4. May 2009

Отчёт EAC об извлечении, выполненном 23. октября 2012, 17:25

Kinki Stunt / Kinki Stunt

Дисковод: ASUS DRW-2014S1T Adapter: 2 ID: 1

Режим чтения : ДостоверностьИспользование точного потока : ДаОтключение кэша аудио : ДаИспользование указателей C2 : Нет

Коррекция смещения при чтении : 6Способность читать области Lead-in и Lead-out : НетЗаполнение пропущенных сэмплов тишиной : ДаУдаление блоков с тишиной в начале и конце : НетПри вычислениях CRC использовались нулевые сэмплы : ДаИнтерфейс : Встроенный Win32-интерфейс для Win NT/2000

Выходной формат : Внутренние WAV-операцииФормат сэмплов : 44.100 Гц; 16 бит; стерео

TOC извлечённого CD

Трек | Старт | Длительность | Начальный сектор | Конечный сектор --------------------------------------------------------------------- 1 | 0:00.00 | 4:14.71 | 0 | 19120 2 | 4:14.71 | 3:52.49 | 19121 | 36569 3 | 8:07.45 | 3:44.39 | 36570 | 53408 4 | 11:52.09 | 4:28.18 | 53409 | 73526 5 | 16:20.27 | 3:31.37 | 73527 | 89388 6 | 19:51.64 | 4:11.03 | 89389 | 108216 7 | 24:02.67 | 3:15.09 | 108217 | 122850 8 | 27:18.01 | 5:54.17 | 122851 | 149417 9 | 33:12.18 | 3:28.02 | 149418 | 165019 10 | 36:40.20 | 4:21.70 | 165020 | 184664 11 | 41:02.15 | 3:28.45 | 184665 | 200309 12 | 44:30.60 | 4:09.59 | 200310 | 219043 13 | 48:40.44 | 4:12.58 | 219044 | 238001

Характеристики диапазона извлечения и сообщения об ошибках

Выбранный диапазон

Имя файла D:\2\Kinki Stunt - Kinki Stunt.wav

Пиковый уровень 97.7 % Качество диапазона 100.0 % CRC копии 115919BB Копирование... OK

Ошибок не произошло

Конец отчёта
Доп. информация: http://www.heavyharmonies.com/cgi-bin/glamcd.cgi?BandNum=1707&CDName=Kinki+Stunt
Rodd Mason lead vocals
Gene Reeves guitar, vocals
Jerry Gaines guitar
Robb Nichols bass, vocals
Rob Tarango drums, percussion


Трекер:  [ 11-Ноя-2012 14:53 ]

  

Скачать .torrent

Размер .torrent файла 16 KB


Размер: 388 MB
Хэш (hash) релиза: 437051b7c07769dc9432c93bb774e5e969f521d2

Еще никто не оставлял запись к записи скачать торрент Kinki Stunt - Kinki Stunt - 1994 . Будь первым!

!Обратная связь