Скачать через торрент музыку Frankie Lymon & The Teenagers - Why Do Fools Fall In Love - 1956, бесплатно без регистрации torrent

Если у вас наблюдаются проблемы со скриншотами, переходом по ссылками, скачиванием торрентов - проблемы в блокировщике рекламы AdBlock. #хорошегоДня!


Статистика раздачи
Размер:  183 MB   |    Зарегистрирован:  4 года 9 месяцев   |    .torrent скачан:  9 раз   |   
Раздают:  1  
   
Загрузка...
 
Автор Сообщение

Galfimbul

avatar Galfimbul


Frankie Lymon & The Teenagers / Why Do Fools Fall In Love

Жанр: Doo Wop
Страна-производитель диска: UK
Год издания: 1956 (1991)
Издатель (лейбл): Charly
Номер по каталогу: CDINS 5054
Страна: USA
Аудиокодек: FLAC (*.flac)
Тип рипа: image+.cue
Битрейт аудио: lossless
Продолжительность: 45:00
Источник (релизер): AUDELAS KINGDOM
Наличие сканов в содержимом раздачи: да
01. Why Do Fools Fall In Love
02. Please Be Mine
03. I Want You To Be My Girl
04. I'm Not A Know It All
05. Who Can Explain
06. I Promise To Remember
07. I'm Not A Juvenile Delinquent
08. Baby Baby
09. Teenage Love
10. Paper Castles
11. Love Is A Clown
12. Am I Fooling Myself Again
13. Out In The Cold Again
14. Miracle In The Rain
15. Goody Goody
16. Creation Of Love
17. Share
18. Little Girl
19. Portable On My Shoulder
20. Silhouettes
21. Little Bitty Pretty One
22. Buzz Buzz Buzz
23. Next Time You See Me
24. I'm Not Too Young To Dream

Доп. информация: http://www.youtube.com/watch?v=q96ylFiQK_I&feature=related
Exact Audio Copy V1.0 beta 2 from 29. April 2011

EAC extraction logfile from 31. October 2012, 18:59

Frankie Lymon & The Teenagers / Why Do Fools Fall In Love

Used drive : _NEC DVD_RW ND-3550A Adapter: 1 ID: 0

Read mode : SecureUtilize accurate stream : YesDefeat audio cache : YesMake use of C2 pointers : No

Read offset correction : 48Overread into Lead-In and Lead-Out : NoFill up missing offset samples with silence : YesDelete leading and trailing silent blocks : NoNull samples used in CRC calculations : YesUsed interface : Native Win32 interface for Win NT & 2000

Used output format : User Defined EncoderSelected bitrate : 768 kBit/sQuality : HighAdd ID3 tag : NoCommand line compressor : C:\Program Files\Exact Audio Copy\FLAC\FLAC.EXEAdditional command line options : -6 -V -T "ARTIST=%artist%" -T "TITLE=%title%" -T "ALBUM=%albumtitle%" -T "DATE=%year%" -T "TRACKNUMBER=%tracknr%" -T "GENRE=%genre%" -T "COMMENT=%comment%" -T "BAND=%albuminterpret%" -T "COMPOSER=%composer%" %haslyrics%--ta

TOC of the extracted CD

Track | Start | Length | Start sector | End sector --------------------------------------------------------- 1 | 0:00.33 | 2:20.42 | 33 | 10574 2 | 2:21.00 | 3:09.15 | 10575 | 24764 3 | 5:30.15 | 2:58.68 | 24765 | 38182 4 | 8:29.08 | 2:51.37 | 38183 | 51044 5 | 11:20.45 | 2:14.03 | 51045 | 61097 6 | 13:34.48 | 2:52.02 | 61098 | 73999 7 | 16:26.50 | 2:39.53 | 74000 | 85977 8 | 19:06.28 | 2:10.15 | 85978 | 95742 9 | 21:16.43 | 2:12.70 | 95743 | 105712 10 | 23:29.38 | 2:09.35 | 105713 | 115422 11 | 25:38.73 | 2:52.70 | 115423 | 128392 12 | 28:31.68 | 2:41.15 | 128393 | 140482 13 | 31:13.08 | 2:30.32 | 140483 | 151764 14 | 33:43.40 | 2:16.28 | 151765 | 161992 15 | 35:59.68 | 2:13.20 | 161993 | 171987 16 | 38:13.13 | 2:32.37 | 171988 | 183424 17 | 40:45.50 | 2:43.15 | 183425 | 195664 18 | 43:28.65 | 2:06.50 | 195665 | 205164 19 | 45:35.40 | 1:51.25 | 205165 | 213514 20 | 47:26.65 | 2:49.68 | 213515 | 226257 21 | 50:16.58 | 2:43.57 | 226258 | 238539 22 | 53:00.40 | 2:06.58 | 238540 | 248047 23 | 55:07.23 | 2:38.65 | 248048 | 259962 24 | 57:46.13 | 2:19.45 | 259963 | 270432

Range status and errors

Selected range

Filename D:\Muzika\Frankie Lymon & The Teenagers - Why Do Fools Fall In Love (1956)\Frankie Lymon & The Teenagers - Why Do Fools Fall In Love.wav

Peak level 100.0 % Extraction speed 4.9 X Range quality 100.0 % Test CRC 5343BD00 Copy CRC 5343BD00 Copy OK

No errors occurred

AccurateRip summary

Track 1 not present in databaseTrack 2 not present in databaseTrack 3 not present in databaseTrack 4 not present in databaseTrack 5 not present in databaseTrack 6 not present in databaseTrack 7 not present in databaseTrack 8 not present in databaseTrack 9 not present in databaseTrack 10 not present in databaseTrack 11 not present in databaseTrack 12 not present in databaseTrack 13 not present in databaseTrack 14 not present in databaseTrack 15 not present in databaseTrack 16 not present in databaseTrack 17 not present in databaseTrack 18 not present in databaseTrack 19 not present in databaseTrack 20 not present in databaseTrack 21 not present in databaseTrack 22 not present in databaseTrack 23 not present in databaseTrack 24 not present in database

None of the tracks are present in the AccurateRip database

End of status report

==== Log checksum 02C528A2EDE4EB6070D93F7C1EF1DEE3F2C20ADDAC2B5FDD18E414459EE86B3E ====


Трекер:  [ 11-Ноя-2012 14:53 ]

  

Скачать .torrent

Размер .torrent файла 15 KB


Размер: 183 MB
Хэш (hash) релиза: 569258211ed2316d2c37169294cefc24acc1dfc7

Еще никто не оставлял запись к записи скачать торрент Frankie Lymon & The Teenagers - Why Do Fools Fall In Love - 1956, . Будь первым!

!Обратная связь