Скачать через торрент музыку Steve Lucky & Rhumba Bums - Come Out Swingin! - 1998, бесплатно без регистрации torrent

Если у вас наблюдаются проблемы со скриншотами, переходом по ссылками, скачиванием торрентов - проблемы в блокировщике рекламы AdBlock. #хорошегоДня!


Статистика раздачи
Размер:  313 MB   |    Зарегистрирован:  5 лет   |    .torrent скачан:  28 раз   |   
Раздают:  1  
   
Загрузка...
 
Автор Сообщение

Galfimbul

avatar Galfimbul


Steve Lucky & Rhumba Bums / Come Out Swingin'!

Жанр: Jump Jive / Neo Swing
Страна-производитель диска: USA
Год издания: 1998
Издатель (лейбл): Rumpus Records
Номер по каталогу: RR-65902
Страна: USA
Аудиокодек: FLAC (*.flac)
Тип рипа: image+.cue
Битрейт аудио: lossless
Продолжительность: 43:04
Источник (релизер): AUDELAS KINGDOM
Наличие сканов в содержимом раздачи: да
01. Jumptown
02. Bye Bye Baby
03. Rumpus Room Honeymoon
04. Daddy-O
05. Wall To Wall Sax
06. Where's My Gravy
07. Down Boy
08. You've Got What It Takes
09. Jump Back
10. Ain't Gonna Quit Ya
11. Do The Pup
12. Play It Cool
13. Hoopty-Do

Доп. информация: http://www.youtube.com/watch?v=TSTGGU08bFM
Exact Audio Copy V1.0 beta 2 from 29. April 2011

EAC extraction logfile from 31. October 2012, 21:28

Steve Lucky & Rhumba Bums / Come Out Swingin'!

Used drive : _NEC DVD_RW ND-3550A Adapter: 1 ID: 0

Read mode : SecureUtilize accurate stream : YesDefeat audio cache : YesMake use of C2 pointers : No

Read offset correction : 48Overread into Lead-In and Lead-Out : NoFill up missing offset samples with silence : YesDelete leading and trailing silent blocks : NoNull samples used in CRC calculations : YesUsed interface : Native Win32 interface for Win NT & 2000

Used output format : User Defined EncoderSelected bitrate : 768 kBit/sQuality : HighAdd ID3 tag : NoCommand line compressor : C:\Program Files\Exact Audio Copy\FLAC\FLAC.EXEAdditional command line options : -6 -V -T "ARTIST=%artist%" -T "TITLE=%title%" -T "ALBUM=%albumtitle%" -T "DATE=%year%" -T "TRACKNUMBER=%tracknr%" -T "GENRE=%genre%" -T "COMMENT=%comment%" -T "BAND=%albuminterpret%" -T "COMPOSER=%composer%" %haslyrics%--ta

TOC of the extracted CD

Track | Start | Length | Start sector | End sector --------------------------------------------------------- 1 | 0:00.00 | 4:40.37 | 0 | 21036 2 | 4:40.37 | 3:01.35 | 21037 | 34646 3 | 7:41.72 | 2:56.55 | 34647 | 47901 4 | 10:38.52 | 4:23.10 | 47902 | 67636 5 | 15:01.62 | 3:13.65 | 67637 | 82176 6 | 18:15.52 | 3:02.25 | 82177 | 95851 7 | 21:18.02 | 4:00.33 | 95852 | 113884 8 | 25:18.35 | 3:25.70 | 113885 | 129329 9 | 28:44.30 | 3:27.02 | 129330 | 144856 10 | 32:11.32 | 4:05.70 | 144857 | 163301 11 | 36:17.27 | 4:10.63 | 163302 | 182114 12 | 40:28.15 | 5:23.62 | 182115 | 206401 13 | 45:52.02 | 3:13.43 | 206402 | 220919

Range status and errors

Selected range

Filename D:\Muzika\Steve Lucky & Rhumba Bums - Come Out Swingin'! (1998)\Steve Lucky & Rhumba Bums - Come Out Swingin'!.wav

Peak level 97.2 % Extraction speed 4.8 X Range quality 100.0 % Test CRC 28B4533D Copy CRC 28B4533D Copy OK

No errors occurred

AccurateRip summary

Track 1 accurately ripped (confidence 6) [8AA58F16] (AR v1)Track 2 accurately ripped (confidence 6) [3FE0D85A] (AR v1)Track 3 accurately ripped (confidence 6) [F2C81B8E] (AR v1)Track 4 accurately ripped (confidence 6) [E3E4068C] (AR v1)Track 5 accurately ripped (confidence 6) [15B9EA6E] (AR v1)Track 6 accurately ripped (confidence 6) [675CD66B] (AR v1)Track 7 accurately ripped (confidence 6) [8CC96ABD] (AR v1)Track 8 accurately ripped (confidence 6) [A2D767EC] (AR v1)Track 9 accurately ripped (confidence 6) [FE93E7AD] (AR v1)Track 10 accurately ripped (confidence 6) [41256B39] (AR v1)Track 11 accurately ripped (confidence 6) [8A0113B8] (AR v1)Track 12 accurately ripped (confidence 6) [39402820] (AR v1)Track 13 accurately ripped (confidence 6) [24ECA7CF] (AR v1)

All tracks accurately ripped

End of status report

==== Log checksum 483C95D7770134563E608E7DBD5B14DAC3A7C7306A675F2171ACEA5CBE222E5C ====


Трекер:  [ 11-Ноя-2012 14:53 ]

  

Скачать .torrent

Размер .torrent файла 13 KB


Размер: 313 MB
Хэш (hash) релиза: b3de992da5c66345c0513d175c93a8f044059a73

Еще никто не оставлял запись к записи скачать торрент Steve Lucky & Rhumba Bums - Come Out Swingin! - 1998, . Будь первым!

!Обратная связь