Скачать через торрент музыку Kolkhoze Printanium - Vol.1 Kolkhoznitsa - 2008, FLAC бесплатно без регистрации torrent

Если у вас наблюдаются проблемы со скриншотами, переходом по ссылками, скачиванием торрентов - проблемы в блокировщике рекламы AdBlock. #хорошегоДня!


Статистика раздачи
Размер:  432 MB   |    Зарегистрирован:  4 года 11 месяцев   |    .torrent скачан:  18 раз   |   
Раздают:  1  
   
Загрузка...
 
Автор Сообщение

Galfimbul

avatar Galfimbul


KOLKHÖZE PRINTANIUM — Vol.1 Kolkhöznitsa (2008)

Жанр: Progressive rock/Jazz rock/Fusion/Zeuhl/Avant-prog
Страна исполнителя: France
Год выпуска диска: 2008
Производитель дисков: France (D’Autres Cordes Records)
Номер по каталогу: d’ac 151
Аудио кодек: FLAC
Тип рипа: image+.cue
Битрейт аудио: lossless
Продолжительность: 01:03:23
Наличие сканов в содержимом раздачи: да
Источник: моя коллекция CD

Треклист:
01. Sans le Savoir [04:10.400]
02. Our Faces At “The Motown” (a) [02:43.960]
03. Our Faces At “The Motown” (b) [05:08.040]
04. Stalker AT79 [03:44.800]
05. FSY Tokyo [04:19.187]
06. Kolkhöze [07:22.000]
07. Ssen Soupape [05:43.960]
08. Chaotic Mantra [05:08.960]
09. Kolkhöze Talk [00:57.280]
10. Morgenrot (a) [05:01.267]
11. Morgenrot (b) [03:03.653]
12. Errance Digitale [03:54.933]
13. Petrovsky 1988 [03:40.680]
14. Surround [03:00.480]
15. Mana [05:23.627]

Line-up:
Paul Brousseau — piano, keyboards, voice, snare drums
[b]Maxime Delpierre
— electric guitar, effects
Jean-Philippe Morel — electric bass, effects
Hugues Mayot — tenor/soprano saxophones
Philippe Gleizes — drums, percussion[/b]

Guests:
Matthieu Metzger — saxophone
[b]Ucoc Lai
— voices
David Linx — voices[/b]
REM GENRE "Progressive Rock/Avant-prog"
REM DATE 2008
REM DISCID BE0EDB0F
REM COMMENT "ExactAudioCopy v0.99pb4"
PERFORMER "KOLKHOZE PRINTANIUM"
TITLE "Vol.1 Kolkhoznitsa"
FILE "KOLKHOZE PRINTANIUM - 2008 - Vol.1 Kolkhoznitsa.wav" WAVE
  TRACK 01 AUDIO
    TITLE "Sans le Savoir"
    PERFORMER "KOLKHOZE PRINTANIUM"
    FLAGS DCP
    INDEX 01 00:00:00
  TRACK 02 AUDIO
    TITLE "Our Faces At ''The Motown'' (a)"
    PERFORMER "KOLKHOZE PRINTANIUM"
    FLAGS DCP
    INDEX 01 04:10:30
  TRACK 03 AUDIO
    TITLE "Our Faces At ''The Motown'' (b)"
    PERFORMER "KOLKHOZE PRINTANIUM"
    FLAGS DCP
    INDEX 01 06:54:27
  TRACK 04 AUDIO
    TITLE "Stalker AT79"
    PERFORMER "KOLKHOZE PRINTANIUM"
    FLAGS DCP
    INDEX 01 12:02:30
  TRACK 05 AUDIO
    TITLE "FSY Tokyo"
    PERFORMER "KOLKHOZE PRINTANIUM"
    FLAGS DCP
    INDEX 01 15:47:15
  TRACK 06 AUDIO
    TITLE "Kolkhoze"
    PERFORMER "KOLKHOZE PRINTANIUM"
    FLAGS DCP
    INDEX 01 20:06:29
  TRACK 07 AUDIO
    TITLE "Ssen Soupape"
    PERFORMER "KOLKHOZE PRINTANIUM"
    FLAGS DCP
    INDEX 01 27:28:29
  TRACK 08 AUDIO
    TITLE "Chaotic Mantra"
    PERFORMER "KOLKHOZE PRINTANIUM"
    FLAGS DCP
    INDEX 01 33:12:26
  TRACK 09 AUDIO
    TITLE "Kolkhoze Talk"
    PERFORMER "KOLKHOZE PRINTANIUM"
    FLAGS DCP
    INDEX 01 38:21:23
  TRACK 10 AUDIO
    TITLE "Morgenrot (a)"
    PERFORMER "KOLKHOZE PRINTANIUM"
    FLAGS DCP
    INDEX 01 39:18:44
  TRACK 11 AUDIO
    TITLE "Morgenrot (b)"
    PERFORMER "KOLKHOZE PRINTANIUM"
    FLAGS DCP
    INDEX 01 44:19:64
  TRACK 12 AUDIO
    TITLE "Errance Digitale"
    PERFORMER "KOLKHOZE PRINTANIUM"
    FLAGS DCP
    INDEX 01 47:23:38
  TRACK 13 AUDIO
    TITLE "Petrovsky 1988"
    PERFORMER "KOLKHOZE PRINTANIUM"
    FLAGS DCP
    INDEX 01 51:18:33
  TRACK 14 AUDIO
    TITLE "Surround"
    PERFORMER "KOLKHOZE PRINTANIUM"
    FLAGS DCP
    INDEX 01 54:59:09
  TRACK 15 AUDIO
    TITLE "Mana"
    PERFORMER "KOLKHOZE PRINTANIUM"
    FLAGS DCP
    INDEX 01 57:59:45
REM GENRE "Progressive Rock/Avant-prog"
REM DATE 2008
REM DISCID BE0EDB0F
REM COMMENT "ExactAudioCopy v0.99pb4"
PERFORMER "KOLKHÖZE PRINTANIUM"
TITLE "Vol.1 Kolkhöznitsa"
FILE "KOLKHÖZE PRINTANIUM - 2008 - Vol.1 Kolkhoznitsa.flac" WAVE
  TRACK 01 AUDIO
    TITLE "Sans le Savoir"
    PERFORMER "KOLKHÖZE PRINTANIUM"
    FLAGS DCP
    INDEX 01 00:00:00
  TRACK 02 AUDIO
    TITLE "Our Faces At “The Motown” (a)"
    PERFORMER "KOLKHÖZE PRINTANIUM"
    FLAGS DCP
    INDEX 01 04:10:30
  TRACK 03 AUDIO
    TITLE "Our Faces At “The Motown” (b)"
    PERFORMER "KOLKHÖZE PRINTANIUM"
    FLAGS DCP
    INDEX 01 06:54:27
  TRACK 04 AUDIO
    TITLE "Stalker AT79"
    PERFORMER "KOLKHÖZE PRINTANIUM"
    FLAGS DCP
    INDEX 01 12:02:30
  TRACK 05 AUDIO
    TITLE "FSY Tokyo"
    PERFORMER "KOLKHÖZE PRINTANIUM"
    FLAGS DCP
    INDEX 01 15:47:15
  TRACK 06 AUDIO
    TITLE "Kolkhöze"
    PERFORMER "KOLKHÖZE PRINTANIUM"
    FLAGS DCP
    INDEX 01 20:06:29
  TRACK 07 AUDIO
    TITLE "Ssen Soupape"
    PERFORMER "KOLKHÖZE PRINTANIUM"
    FLAGS DCP
    INDEX 01 27:28:29
  TRACK 08 AUDIO
    TITLE "Chaotic Mantra"
    PERFORMER "KOLKHÖZE PRINTANIUM"
    FLAGS DCP
    INDEX 01 33:12:26
  TRACK 09 AUDIO
    TITLE "Kolkhöze Talk"
    PERFORMER "KOLKHÖZE PRINTANIUM"
    FLAGS DCP
    INDEX 01 38:21:23
  TRACK 10 AUDIO
    TITLE "Morgenrot (a)"
    PERFORMER "KOLKHÖZE PRINTANIUM"
    FLAGS DCP
    INDEX 01 39:18:44
  TRACK 11 AUDIO
    TITLE "Morgenrot (b)"
    PERFORMER "KOLKHÖZE PRINTANIUM"
    FLAGS DCP
    INDEX 01 44:19:64
  TRACK 12 AUDIO
    TITLE "Errance Digitale"
    PERFORMER "KOLKHÖZE PRINTANIUM"
    FLAGS DCP
    INDEX 01 47:23:38
  TRACK 13 AUDIO
    TITLE "Petrovsky 1988"
    PERFORMER "KOLKHÖZE PRINTANIUM"
    FLAGS DCP
    INDEX 01 51:18:33
  TRACK 14 AUDIO
    TITLE "Surround"
    PERFORMER "KOLKHÖZE PRINTANIUM"
    FLAGS DCP
    INDEX 01 54:59:09
  TRACK 15 AUDIO
    TITLE "Mana"
    PERFORMER "KOLKHÖZE PRINTANIUM"
    FLAGS DCP
    INDEX 01 57:59:45
Exact Audio Copy V0.99 prebeta 4 from 23. January 2008

Отчёт EAC об извлечении, выполненном 30. октября 2012, 14:23

KOLKHOZE PRINTANIUM / Vol.1 Kolkhoznitsa

Дисковод: TSSTcorpCD/DVDW SH-S183A   Adapter: 4  ID: 1

Режим чтения                 : Достоверность
Использование точного потока : Да
Отключение кэша аудио        : Да
Использование указателей C2  : Нет

Коррекция смещения при чтении                     : 6
Способность читать области Lead-in и Lead-out     : Нет
Заполнение пропущенных сэмплов тишиной            : Да
Удаление блоков с тишиной в начале и конце        : Нет
При вычислениях CRC использовались нулевые сэмплы : Да
Интерфейс                                         : Встроенный Win32-интерфейс для Win NT/2000

Выходной формат : Внутренние WAV-операции
Формат сэмплов  : 44.100 Гц; 16 бит; стерео

TOC извлечённого CD

     Трек |   Старт  | Длительность | Начальный сектор | Конечный сектор
    ---------------------------------------------------------------------
       1  |  0:00.00 |    4:10.30   |           0      |      18779
       2  |  4:10.30 |    2:43.72   |       18780      |      31076
       3  |  6:54.27 |    5:08.03   |       31077      |      54179
       4  | 12:02.30 |    3:44.60   |       54180      |      71039
       5  | 15:47.15 |    4:19.14   |       71040      |      90478
       6  | 20:06.29 |    7:22.00   |       90479      |     123628
       7  | 27:28.29 |    5:43.72   |      123629      |     149425
       8  | 33:12.26 |    5:08.72   |      149426      |     172597
       9  | 38:21.23 |    0:57.21   |      172598      |     176893
      10  | 39:18.44 |    5:01.20   |      176894      |     199488
      11  | 44:19.64 |    3:03.49   |      199489      |     213262
      12  | 47:23.38 |    3:54.70   |      213263      |     230882
      13  | 51:18.33 |    3:40.51   |      230883      |     247433
      14  | 54:59.09 |    3:00.36   |      247434      |     260969
      15  | 57:59.45 |    5:23.47   |      260970      |     285241

Характеристики диапазона извлечения и сообщения об ошибках

Выбранный диапазон

     Имя файла D:\TEMP\KOLKHOZE PRINTANIUM - 2008 - Vol.1 Kolkhoznitsa.wav

     Пиковый уровень 99.9 %
     Качество диапазона 100.0 %
     CRC теста 82C89DE4
     CRC копии 82C89DE4
     Копирование... OK

Ошибок не произошло

AccurateRip: сводка

Трек  1  нет в базе данных
Трек  2  точное извлечение (доверие 2)  [23D637F7]
Трек  3  нет в базе данных
Трек  4  нет в базе данных
Трек  5  точное извлечение (доверие 2)  [1CE50909]
Трек  6  точное извлечение (доверие 2)  [24357F34]
Трек  7  точное извлечение (доверие 2)  [DD6210CA]
Трек  8  точное извлечение (доверие 2)  [1226F022]
Трек  9  точное извлечение (доверие 2)  [F281F24B]
Трек 10  точное извлечение (доверие 2)  [DA0E9782]
Трек 11  точное извлечение (доверие 2)  [18A3E044]
Трек 12  нет в базе данных
Трек 13  точное извлечение (доверие 2)  [7D4E9207]
Трек 14  точное извлечение (доверие 2)  [EB024B29]
Трек 15  нет в базе данных

0 трек(и) скопированы точно
5 трек(и) не содержатся в базе AccurateRip

Некоторые треки не прошли проверку на точность

Конец отчёта


Трекер:  [ 11-Ноя-2012 14:52 ]

  

Скачать .torrent

Размер .torrent файла 18 KB


Размер: 432 MB
Хэш (hash) релиза: b835523ba189c672e8c3e43cabfc8e8e24aea978

Еще никто не оставлял запись к записи скачать торрент Kolkhoze Printanium - Vol.1 Kolkhoznitsa - 2008, FLAC . Будь первым!

!Обратная связь