Скачать через торрент музыку Chalice - Persistence Of Time - 1998, APE бесплатно без регистрации torrent

Если у вас наблюдаются проблемы со скриншотами, переходом по ссылками, скачиванием торрентов - проблемы в блокировщике рекламы AdBlock. #хорошегоДня!


Статистика раздачи
Размер:  414 MB   |    Зарегистрирован:  4 года 9 месяцев   |    .torrent скачан:  10 раз   |   
Раздают:  1  
   
Загрузка...
 
Автор Сообщение

Galfimbul

avatar Galfimbul


Chalice / Persistence Of Time
Жанр: Melodic Hard Rock/Hard Rock
Страна-производитель диска: Germany
Год издания: 1998
Издатель (лейбл): Concrete
Номер по каталогу: 0084512CTR
Страна: Germany
Аудиокодек: APE (*.ape)
Тип рипа: image+.cue
Битрейт аудио: lossless
Продолжительность: 54:28
Источник (релизер): Свой рип с оригинального CD
Наличие сканов в содержимом раздачи: 300dpi
Tracks:
01. Persistence Of Time
02. No Control
03. Say Goodbye
04. Voices In My Mind
05. The Hidden
06. Somewhere
07. Where Are We Now
08. Hold You Back
09. First Day
10. Reaching For The Limits
11. T.W.I.M.T.B

Personnel:
Gino Naschke - lead & backing vocals
Oliver Scheer - electric & acoustic guitars
Steve Lagleder - bass, backing vocals, acoustic guitar
Michael Mehl - drums, backing vocals

Exact Audio Copy V0.99 prebeta 4 from 23. January 2008

Отчёт EAC об извлечении, выполненном 11. апреля 2011, 14:05

Chalice / Persistence Of Time

Дисковод: _NEC DVD_RW ND-3550A Adapter: 0 ID: 0

Режим чтения : ДостоверностьИспользование точного потока : ДаОтключение кэша аудио : ДаИспользование указателей C2 : Нет

Коррекция смещения при чтении : 48Способность читать области Lead-in и Lead-out : НетЗаполнение пропущенных сэмплов тишиной : ДаУдаление блоков с тишиной в начале и конце : НетПри вычислениях CRC использовались нулевые сэмплы : ДаИнтерфейс : Установленный внешний ASPI-интерфейс

Выходной формат : Внутренние WAV-операцииФормат сэмплов : 44.100 Гц; 16 бит; стерео

TOC извлечённого CD

Трек | Старт | Длительность | Начальный сектор | Конечный сектор --------------------------------------------------------------------- 1 | 0:00.00 | 7:41.64 | 0 | 34638 2 | 7:41.64 | 4:51.55 | 34639 | 56518 3 | 12:33.44 | 4:20.48 | 56519 | 76066 4 | 16:54.17 | 3:17.16 | 76067 | 90857 5 | 20:11.33 | 3:42.18 | 90858 | 107525 6 | 23:53.51 | 4:49.22 | 107526 | 129222 7 | 28:42.73 | 4:34.13 | 129223 | 149785 8 | 33:17.11 | 5:27.18 | 149786 | 174328 9 | 38:44.29 | 6:16.48 | 174329 | 202576 10 | 45:01.02 | 5:02.26 | 202577 | 225252 11 | 50:03.28 | 4:25.29 | 225253 | 245156

Характеристики диапазона извлечения и сообщения об ошибках

Выбранный диапазон

Имя файла C:\Documents and Settings\booddoom\Рабочий стол\Новая папка\Chalice - Persistence Of Time.wav

Пиковый уровень 98.2 % Качество диапазона 99.9 % CRC теста 2B969506 CRC копии 2B969506 Копирование... OK

Ошибок не произошло

AccurateRip: сводка

Трек 1 точное извлечение (доверие 2) [0B917E89]Трек 2 точное извлечение (доверие 2) [EFE74426]Трек 3 точное извлечение (доверие 2) [7E1E76CD]Трек 4 точное извлечение (доверие 2) [8C1C8139]Трек 5 точное извлечение (доверие 2) [A3B087BB]Трек 6 точное извлечение (доверие 2) [F0C96696]Трек 7 точное извлечение (доверие 2) [F59852CA]Трек 8 точное извлечение (доверие 2) [BC1F5535]Трек 9 точное извлечение (доверие 2) [A7F3A31A]Трек 10 точное извлечение (доверие 2) [A1101332]Трек 11 точное извлечение (доверие 2) [B0F244D5]

Все треки извлечены точно

Конец отчёта
REM GENRE "Melodic Rock"REM DATE 1998REM DISCID 870CC40BREM COMMENT "ExactAudioCopy v0.99pb4"PERFORMER "Chalice"TITLE "Persistence Of Time"FILE "Chalice - Persistence Of Time.wav" WAVE TRACK 01 AUDIO TITLE "Persistence Of Time" PERFORMER "Chalice" FLAGS DCP INDEX 01 00:00:00 TRACK 02 AUDIO TITLE "No Control" PERFORMER "Chalice" FLAGS DCP INDEX 00 07:39:64 INDEX 01 07:41:64 TRACK 03 AUDIO TITLE "Say Goodbye" PERFORMER "Chalice" FLAGS DCP INDEX 00 12:31:44 INDEX 01 12:33:44 TRACK 04 AUDIO TITLE "Voices In My Mind" PERFORMER "Chalice" FLAGS DCP INDEX 00 16:52:17 INDEX 01 16:54:17 TRACK 05 AUDIO TITLE "The Hidden" PERFORMER "Chalice" FLAGS DCP INDEX 00 20:09:33 INDEX 01 20:11:33 TRACK 06 AUDIO TITLE "Somewhere" PERFORMER "Chalice" FLAGS DCP INDEX 00 23:53:41 INDEX 01 23:53:51 TRACK 07 AUDIO TITLE "Where Are We Now" PERFORMER "Chalice" FLAGS DCP INDEX 00 28:39:73 INDEX 01 28:42:73 TRACK 08 AUDIO TITLE "Hold You Back" PERFORMER "Chalice" FLAGS DCP INDEX 00 33:16:11 INDEX 01 33:17:11 TRACK 09 AUDIO TITLE "First Day" PERFORMER "Chalice" FLAGS DCP INDEX 00 38:42:29 INDEX 01 38:44:29 TRACK 10 AUDIO TITLE "Reaching For The Limits" PERFORMER "Chalice" FLAGS DCP INDEX 00 44:59:02 INDEX 01 45:01:02 TRACK 11 AUDIO TITLE "T.W.I.M.T.B" PERFORMER "Chalice" FLAGS DCP INDEX 00 50:01:28 INDEX 01 50:03:28


Трекер:  [ 11-Ноя-2012 14:51 ]

  

Скачать .torrent

Размер .torrent файла 17 KB


Размер: 414 MB
Хэш (hash) релиза: 85fb286e552363361105eef90d54ca97ce571cef

Еще никто не оставлял запись к записи скачать торрент Chalice - Persistence Of Time - 1998, APE . Будь первым!

!Обратная связь