Скачать через торрент музыку The Script - Science & Faith бесплатно без регистрации torrent

Если у вас наблюдаются проблемы со скриншотами, переходом по ссылками, скачиванием торрентов - проблемы в блокировщике рекламы AdBlock. #хорошегоДня!


Статистика раздачи
Размер:  349 MB   |    Зарегистрирован:  4 года 9 месяцев   |    .torrent скачан:  11 раз   |   
Раздают:  1  
   
Загрузка...
 
Автор Сообщение

Galfimbul

avatar Galfimbul


The Script - Science & Faith (US Special Edition)

Жанр: Pop-Rock
Год издания: 2011
Издатель (лейбл): Epic
Номер по каталогу: 88697812272
Страна: Ireland
Аудиокодек: FLAC (*.flac)
Тип рипа: tracks+.cue
Битрейт аудио: lossless
Продолжительность: 00:49:36
Источник (релизер): what.cd (wwbom02)
Наличие сканов в содержимом раздачи: нет
Треклист:
01. You Won't Feel A Thing (4:35)
02. For The First Time (4:14)
03. Nothing (4:34)
04. Science & Faith (4:22)
05. If You Ever Come Back (4:04)
06. Long Gone And Moved On (4:19)
07. Dead Man Walking (3:56)
08. This = Love (4:23)
09. Walk Away (3:40)
10. Exit Wounds (4:27)
11. Bullet From A Gun (3:25)
12. Walk Away (3:36)
X Lossless Decoder version 20121013 (142.0)

XLD extraction logfile from 2012-10-26 20:01:48 -0400

Various Artists / Science & Faith

Used drive : OPTIARC DVD RW AD-5630A (revision 1AHN)

Ripper mode : XLD Secure RipperDisable audio cache : OK for the drive with a cache less than 1375KiBMake use of C2 pointers : NORead offset correction : 48Max retry count : 20Gap status : Analyzed, Appended

TOC of the extracted CD Track | Start | Length | Start sector | End sector --------------------------------------------------------- 1 | 00:00:00 | 04:35:06 | 0 | 20630 2 | 04:35:06 | 04:14:31 | 20631 | 39711 3 | 08:49:37 | 04:33:58 | 39712 | 60244 4 | 13:23:20 | 04:21:68 | 60245 | 79887 5 | 17:45:13 | 04:03:49 | 79888 | 98161 6 | 21:48:62 | 04:19:09 | 98162 | 117595 7 | 26:07:71 | 03:56:24 | 117596 | 135319 8 | 30:04:20 | 04:22:52 | 135320 | 155021 9 | 34:26:72 | 03:40:09 | 155022 | 171530 10 | 38:07:06 | 04:26:72 | 171531 | 191552 11 | 42:34:03 | 03:25:21 | 191553 | 206948 12 | 45:59:24 | 03:36:32 | 206949 | 223180

AccurateRip Summary (DiscID: 0016e28e-00d4107f-a60b9f0c) Track 01 : OK (v1+v2, confidence 21/21) Track 02 : OK (v1+v2, confidence 22/22) Track 03 : OK (v1+v2, confidence 22/22) Track 04 : OK (v1+v2, confidence 22/22) Track 05 : OK (v1+v2, confidence 22/22) Track 06 : OK (v1+v2, confidence 22/22) Track 07 : OK (v1+v2, confidence 22/22) Track 08 : OK (v1+v2, confidence 22/22) Track 09 : OK (v1+v2, confidence 22/22) Track 10 : OK (v1+v2, confidence 22/22) Track 11 : OK (v1+v2, confidence 22/22) Track 12 : OK (v1+v2, confidence 22/22) ->All tracks accurately ripped.

All Tracks Album gain : -10.15 dB Peak : 0.979767 Statistics Read error : 0 Jitter error (maybe fixed) : 0 Retry sector count : 0 Damaged sector count : 0

Track 01 Filename : /Users/wwbom02/Desktop/Apple Lossless/Various Artists - Science & Faith (2011) [FLAC]/01 You Won't Feel A Thing.flac Pre-gap length : 00:02:00

Track gain : -11.29 dB Peak : 0.977112 CRC32 hash (test run) : 5B33E8D4 CRC32 hash : 5B33E8D4 CRC32 hash (skip zero) : D82D13C4 AccurateRip v1 signature : ABE235D8 AccurateRip v2 signature : DFE2FA70 ->Accurately ripped (v1+v2, confidence 12+9/21) Statistics Read error : 0 Jitter error (maybe fixed) : 0 Retry sector count : 0 Damaged sector count : 0

Track 02 Filename : /Users/wwbom02/Desktop/Apple Lossless/Various Artists - Science & Faith (2011) [FLAC]/02 For The First Time.flac Pre-gap length : 00:01:44

Track gain : -10.81 dB Peak : 0.977112 CRC32 hash (test run) : 8AF1373A CRC32 hash : 8AF1373A CRC32 hash (skip zero) : 11F1B293 AccurateRip v1 signature : 2E0151D3 AccurateRip v2 signature : 7128D3A5 ->Accurately ripped (v1+v2, confidence 13+9/22) Statistics Read error : 0 Jitter error (maybe fixed) : 0 Retry sector count : 0 Damaged sector count : 0

Track 03 Filename : /Users/wwbom02/Desktop/Apple Lossless/Various Artists - Science & Faith (2011) [FLAC]/03 Nothing.flac Pre-gap length : 00:01:42

Track gain : -10.00 dB Peak : 0.977112 CRC32 hash (test run) : A05F2A28 CRC32 hash : A05F2A28 CRC32 hash (skip zero) : 0F180C28 AccurateRip v1 signature : DDAC5F5A AccurateRip v2 signature : D5AD10AC ->Accurately ripped (v1+v2, confidence 13+9/22) Statistics Read error : 0 Jitter error (maybe fixed) : 0 Retry sector count : 0 Damaged sector count : 0

Track 04 Filename : /Users/wwbom02/Desktop/Apple Lossless/Various Artists - Science & Faith (2011) [FLAC]/04 Science & Faith.flac Pre-gap length : 00:01:42

Track gain : -10.45 dB Peak : 0.977112 CRC32 hash (test run) : A470E136 CRC32 hash : A470E136 CRC32 hash (skip zero) : 12F8B604 AccurateRip v1 signature : 9F2276F4 AccurateRip v2 signature : E8F1B4C7 ->Accurately ripped (v1+v2, confidence 13+9/22) Statistics Read error : 0 Jitter error (maybe fixed) : 0 Retry sector count : 0 Damaged sector count : 0

Track 05 Filename : /Users/wwbom02/Desktop/Apple Lossless/Various Artists - Science & Faith (2011) [FLAC]/05 If You Ever Come Back.flac Pre-gap length : 00:01:44

Track gain : -9.75 dB Peak : 0.977112 CRC32 hash (test run) : A010E3F6 CRC32 hash : A010E3F6 CRC32 hash (skip zero) : 09D1C4F5 AccurateRip v1 signature : 472A843D AccurateRip v2 signature : 2942A000 ->Accurately ripped (v1+v2, confidence 13+9/22) Statistics Read error : 0 Jitter error (maybe fixed) : 0 Retry sector count : 0 Damaged sector count : 0

Track 06 Filename : /Users/wwbom02/Desktop/Apple Lossless/Various Artists - Science & Faith (2011) [FLAC]/06 Long Gone And Moved On.flac Pre-gap length : 00:01:44

Track gain : -8.97 dB Peak : 0.977112 CRC32 hash (test run) : 1225C1B5 CRC32 hash : 1225C1B5 CRC32 hash (skip zero) : 20280864 AccurateRip v1 signature : 9D58CAF4 AccurateRip v2 signature : E3B3DF7D ->Accurately ripped (v1+v2, confidence 13+9/22) Statistics Read error : 0 Jitter error (maybe fixed) : 0 Retry sector count : 0 Damaged sector count : 0

Track 07 Filename : /Users/wwbom02/Desktop/Apple Lossless/Various Artists - Science & Faith (2011) [FLAC]/07 Dead Man Walking.flac Pre-gap length : 00:01:44

Track gain : -10.24 dB Peak : 0.977112 CRC32 hash (test run) : 81224F6A CRC32 hash : 81224F6A CRC32 hash (skip zero) : E7261CDC AccurateRip v1 signature : 23095007 AccurateRip v2 signature : 92FABCAA ->Accurately ripped (v1+v2, confidence 13+9/22) Statistics Read error : 0 Jitter error (maybe fixed) : 0 Retry sector count : 0 Damaged sector count : 0

Track 08 Filename : /Users/wwbom02/Desktop/Apple Lossless/Various Artists - Science & Faith (2011) [FLAC]/08 This = Love.flac Pre-gap length : 00:01:44

Track gain : -9.35 dB Peak : 0.977112 CRC32 hash (test run) : 32C51794 CRC32 hash : 32C51794 CRC32 hash (skip zero) : 0C0A3563 AccurateRip v1 signature : 60698C27 AccurateRip v2 signature : EDE3358C ->Accurately ripped (v1+v2, confidence 13+9/22) Statistics Read error : 0 Jitter error (maybe fixed) : 0 Retry sector count : 0 Damaged sector count : 0

Track 09 Filename : /Users/wwbom02/Desktop/Apple Lossless/Various Artists - Science & Faith (2011) [FLAC]/09 Walk Away.flac Pre-gap length : 00:01:44

Track gain : -8.49 dB Peak : 0.979767 CRC32 hash (test run) : BDB6E197 CRC32 hash : BDB6E197 CRC32 hash (skip zero) : 61467B20 AccurateRip v1 signature : 262BACB2 AccurateRip v2 signature : F4063F50 ->Accurately ripped (v1+v2, confidence 13+9/22) Statistics Read error : 0 Jitter error (maybe fixed) : 0 Retry sector count : 0 Damaged sector count : 0

Track 10 Filename : /Users/wwbom02/Desktop/Apple Lossless/Various Artists - Science & Faith (2011) [FLAC]/10 Exit Wounds.flac Pre-gap length : 00:01:43

Track gain : -10.15 dB Peak : 0.977112 CRC32 hash (test run) : 016E9E94 CRC32 hash : 016E9E94 CRC32 hash (skip zero) : 777F15AE AccurateRip v1 signature : A05D04D6 AccurateRip v2 signature : 42E66D87 ->Accurately ripped (v1+v2, confidence 13+9/22) Statistics Read error : 0 Jitter error (maybe fixed) : 0 Retry sector count : 0 Damaged sector count : 0

Track 11 Filename : /Users/wwbom02/Desktop/Apple Lossless/Various Artists - Science & Faith (2011) [FLAC]/11 Bullet From A Gun.flac Pre-gap length : 00:01:43

Track gain : -10.14 dB Peak : 0.977112 CRC32 hash (test run) : 9D2A692F CRC32 hash : 9D2A692F CRC32 hash (skip zero) : 1B5056F3 AccurateRip v1 signature : 3265EC6B AccurateRip v2 signature : FAA195CE ->Accurately ripped (v1+v2, confidence 13+9/22) Statistics Read error : 0 Jitter error (maybe fixed) : 0 Retry sector count : 0 Damaged sector count : 0

Track 12 Filename : /Users/wwbom02/Desktop/Apple Lossless/Various Artists - Science & Faith (2011) [FLAC]/12 Walk Away.flac Pre-gap length : 00:01:44

Track gain : -7.90 dB Peak : 0.977112 CRC32 hash (test run) : E81A2E44 CRC32 hash : E81A2E44 CRC32 hash (skip zero) : FC1A985E AccurateRip v1 signature : 2852C6F9 AccurateRip v2 signature : AEEFB6EF ->Accurately ripped (v1+v2, confidence 13+9/22) Statistics Read error : 0 Jitter error (maybe fixed) : 0 Retry sector count : 0 Damaged sector count : 0

No errors occurred

End of status report
TITLE "Science & Faith"CATALOG 0886978122728REM GENRE "Pop"REM DATE "2011"REM DISCNUMBER 1REM TOTALDISCS 1REM DISCID A60B9F0CREM REPLAYGAIN_ALBUM_GAIN -10.15 dBREM REPLAYGAIN_ALBUM_PEAK 0.979767FILE "01 You Won't Feel A Thing.flac" WAVE TRACK 01 AUDIO TITLE "You Won't Feel A Thing" PERFORMER "The Script" SONGWRITER "Ben Sargeant/Andrew Frampton/Steve Kipner/Glen Power" ISRC GBARL1000954 REM REPLAYGAIN_TRACK_GAIN -11.29 dB REM REPLAYGAIN_TRACK_PEAK 0.977112 INDEX 01 00:00:00 TRACK 02 AUDIO TITLE "For The First Time" PERFORMER "The Script" SONGWRITER "Daniel O'Donoghue/Mark Sheehan" ISRC GBARL1000776 REM REPLAYGAIN_TRACK_GAIN -10.81 dB REM REPLAYGAIN_TRACK_PEAK 0.977112 INDEX 00 04:33:37FILE "02 For The First Time.flac" WAVE INDEX 01 00:00:00 TRACK 03 AUDIO TITLE "Nothing" PERFORMER "The Script" SONGWRITER "Steve Kipner/Andrew Frampton" ISRC GBARL1000955 REM REPLAYGAIN_TRACK_GAIN -10.00 dB REM REPLAYGAIN_TRACK_PEAK 0.977112 INDEX 00 04:12:64FILE "03 Nothing.flac" WAVE INDEX 01 00:00:00 TRACK 04 AUDIO TITLE "Science & Faith" PERFORMER "The Script" SONGWRITER "Daniel O'Donoghue/Mark Sheehan" ISRC GBARL1000956 REM REPLAYGAIN_TRACK_GAIN -10.45 dB REM REPLAYGAIN_TRACK_PEAK 0.977112 INDEX 00 04:32:16FILE "04 Science & Faith.flac" WAVE INDEX 01 00:00:00 TRACK 05 AUDIO TITLE "If You Ever Come Back" PERFORMER "The Script" SONGWRITER "Andrew Frampton/Steve Kipner" ISRC GBARL1000957 REM REPLAYGAIN_TRACK_GAIN -9.75 dB REM REPLAYGAIN_TRACK_PEAK 0.977112 INDEX 00 04:20:24FILE "05 If You Ever Come Back.flac" WAVE INDEX 01 00:00:00 TRACK 06 AUDIO TITLE "Long Gone And Moved On" PERFORMER "The Script" SONGWRITER "Glen Power" ISRC GBARL1000958 REM REPLAYGAIN_TRACK_GAIN -8.97 dB REM REPLAYGAIN_TRACK_PEAK 0.977112 INDEX 00 04:02:05FILE "06 Long Gone And Moved On.flac" WAVE INDEX 01 00:00:00 TRACK 07 AUDIO TITLE "Dead Man Walking" PERFORMER "The Script" SONGWRITER "Daniel O'Donoghue/Mark Sheehan" ISRC GBARL1000959 REM REPLAYGAIN_TRACK_GAIN -10.24 dB REM REPLAYGAIN_TRACK_PEAK 0.977112 INDEX 00 04:17:40FILE "07 Dead Man Walking.flac" WAVE INDEX 01 00:00:00 TRACK 08 AUDIO TITLE "This = Love" PERFORMER "The Script" SONGWRITER "Glen Power/Ben Sargeant" ISRC GBARL1000960 REM REPLAYGAIN_TRACK_GAIN -9.35 dB REM REPLAYGAIN_TRACK_PEAK 0.977112 INDEX 00 03:54:55FILE "08 This = Love.flac" WAVE INDEX 01 00:00:00 TRACK 09 AUDIO TITLE "Walk Away" PERFORMER "The Script Feat B.o.B." SONGWRITER "Bobby Ray Simmons/Glen Power/Ben Sargeant" ISRC GBARL1001581 REM REPLAYGAIN_TRACK_GAIN -8.49 dB REM REPLAYGAIN_TRACK_PEAK 0.979767 INDEX 00 04:21:08FILE "09 Walk Away.flac" WAVE INDEX 01 00:00:00 TRACK 10 AUDIO TITLE "Exit Wounds" PERFORMER "The Script" SONGWRITER "Steve Kipner/Andrew Frampton" ISRC GBARL1000962 REM REPLAYGAIN_TRACK_GAIN -10.15 dB REM REPLAYGAIN_TRACK_PEAK 0.977112 INDEX 00 03:38:41FILE "10 Exit Wounds.flac" WAVE INDEX 01 00:00:00 TRACK 11 AUDIO TITLE "Bullet From A Gun" PERFORMER "The Script" SONGWRITER "Andrew Frampton/Steve Kipner" ISRC GBARL1000963 REM REPLAYGAIN_TRACK_GAIN -10.14 dB REM REPLAYGAIN_TRACK_PEAK 0.977112 INDEX 00 04:25:29FILE "11 Bullet From A Gun.flac" WAVE INDEX 01 00:00:00 TRACK 12 AUDIO TITLE "Walk Away" PERFORMER "The Script" SONGWRITER "Ben Sargeant/Glen Power" ISRC GBARL1000961 REM REPLAYGAIN_TRACK_GAIN -7.90 dB REM REPLAYGAIN_TRACK_PEAK 0.977112 INDEX 00 03:23:52FILE "12 Walk Away.flac" WAVE INDEX 01 00:00:00
AUDIOCHECKER v2.0 beta (build 457) - by Dester - <a href="mailto:opdester@freemail.hu" class="postLink">opdester@freemail.hu</a>~~~~~~~~~~~~~~~~~~~~~~~~~~~~~~~~~~-=== DO NOT EDIT THIS FILE! ===-

Path: ...\2011 - Science & Faith (US Special Edition)

01 -=- 01 You Won't Feel A Thing.flac -=- CDDA (99%)02 -=- 02 For The First Time.flac -=- CDDA (99%)03 -=- 03 Nothing.flac -=- CDDA (100%)04 -=- 04 Science & Faith.flac -=- CDDA (100%)05 -=- 05 If You Ever Come Back.flac -=- CDDA (99%)06 -=- 06 Long Gone And Moved On.flac -=- CDDA (100%)07 -=- 07 Dead Man Walking.flac -=- CDDA (100%)08 -=- 08 This = Love.flac -=- CDDA (100%)09 -=- 09 Walk Away.flac -=- CDDA (99%)10 -=- 10 Exit Wounds.flac -=- CDDA (99%)11 -=- 11 Bullet From A Gun.flac -=- CDDA (100%)12 -=- 12 Walk Away.flac -=- CDDA (99%)

Summary 99,50% CDDA

119777476




Трекер:  [ 11-Ноя-2012 14:51 ]

  

Скачать .torrent

Размер .torrent файла 29 KB


Размер: 349 MB
Хэш (hash) релиза: ea58d66a9b40dfc5424c8043d852a5093d18b0fb

Торренты, похожие на The Script - Science & Faith скачать торрент

Форум Название Автор Размер S L Добавлен
Зарубежная Поп-музыка (mp3) ·· (Pop) The Script-Science And Faith (CaHeSo) - 2010, MP3, AVG 201 kbps 1ov07 6378145761 MB 0 0 1300112922

17:28

14-Мар-11

Еще никто не оставлял запись к записи скачать торрент The Script - Science & Faith . Будь первым!

!Обратная связь