Скачать через торрент музыку Milow - From North To South бесплатно без регистрации torrent

Если у вас наблюдаются проблемы со скриншотами, переходом по ссылками, скачиванием торрентов - проблемы в блокировщике рекламы AdBlock. #хорошегоДня!


Статистика раздачи
Размер:  457 MB   |    Зарегистрирован:  4 года 11 месяцев   |    .torrent скачан:  4 раза   |   
Раздают:  1  
   
Загрузка...
 
Автор Сообщение

Galfimbul

avatar Galfimbul


Milow / From North To South (Live)

Жанр: Pop rock
Год издания: 2012
Аудиокодек: FLAC (*.flac)
Тип рипа: image+.cue
Битрейт аудио: lossless
Продолжительность: 01:05:15
Источник (релизер): usenet
Наличие сканов в содержимом раздачи: да

Треклист:
01. Car Wreck In The Lake (3:48)
02. Little In The Middle (3:34)
03. The Kingdom (8:17)
04. She Might She Might (3:28)
05. Move To Town (3:44)
06. Dreamers And Renegades (3:11)
07. You Don't Know (6:54)
08. You And Me (In My Pocket) (5:39)
09. Building Bridges (3:07)
10. Never Gonna Stop (7:13)
11. California Rain (3:44)
12. Ayo Technology (8:59)
13. Where My Head Used To Be (3:36)
Exact Audio Copy V1.0 beta 3 from 29. August 2011

EAC uitlezen log bestand van 28. Oktober 2012, 16:55

Milow / From North To South (Live)

gebruikt loopwerk : PIONEER DVD-RW DVR-219L Adapter: 3 ID: 0

Lees mode : : VeiligGebruik accurate stream : JaAudio buffer uitgeschakeld : NeenMaak gebruik van C2 pointers : Ja

Lees-offset correctie : : 6Overlees in Lead-In en Lead-Out : NeenVul ontbrekende offset samples met stiltes aan : JaWis stilte blokken aan het begin en einde : NeenNul samples gebruikt in CRC berekeningen : JaGebruikte interface : Native Win32 interface voor Win NT & 2000

Gebruik uitgave formaat : : Interne WAV RoutinesSample formaat : 44.100 Hz; 16 Bit; Stereo

TOC van de uitgelezen CD

Track | Start | Lengte | Start sector | Eind sector ---------------------------------------------------------- 1 | 0:00.00 | 3:48.18 | 0 | 17117 2 | 3:48.18 | 3:34.37 | 17118 | 33204 3 | 7:22.55 | 8:17.26 | 33205 | 70505 4 | 15:40.06 | 3:27.71 | 70506 | 86101 5 | 19:08.02 | 3:44.34 | 86102 | 102935 6 | 22:52.36 | 3:11.28 | 102936 | 117288 7 | 26:03.64 | 6:53.40 | 117289 | 148303 8 | 32:57.29 | 5:39.02 | 148304 | 173730 9 | 38:36.31 | 3:06.66 | 173731 | 187746 10 | 41:43.22 | 7:12.38 | 187747 | 220184 11 | 48:55.60 | 3:43.44 | 220185 | 236953 12 | 52:39.29 | 8:59.36 | 236954 | 277414 13 | 61:38.65 | 3:36.28 | 277415 | 293642

Bereikstatus en fouten

Geselecteerd bereik

Bestands naam F:\POST 2\Milow - From North To South Live (EAC)\Milow - From North To South (Live).wav

Piek niveau 100.0 % Uitlees snelheid 9.7 X Bereikskwaliteit 100.0 % Kopie CRC 21B0593A Kopie OK

Geen fouten opgetreden

AccurateRip samenvatting

Track 1 niet aanwezig in databaseTrack 2 niet aanwezig in databaseTrack 3 niet aanwezig in databaseTrack 4 niet aanwezig in databaseTrack 5 niet aanwezig in databaseTrack 6 niet aanwezig in databaseTrack 7 niet aanwezig in databaseTrack 8 niet aanwezig in databaseTrack 9 niet aanwezig in databaseTrack 10 niet aanwezig in databaseTrack 11 niet aanwezig in databaseTrack 12 niet aanwezig in databaseTrack 13 niet aanwezig in database

Geen enkele Track aanwezig in AccurateRip database

Einde status report
http://www.milow.com/album/north-south-live

Трекер:  [ 11-Ноя-2012 14:51 ]

  

Скачать .torrent

Размер .torrent файла 10 KB


Размер: 457 MB
Хэш (hash) релиза: 7393e9521f536df547b01ee6697bb71503107294

Еще никто не оставлял запись к записи скачать торрент Milow - From North To South . Будь первым!

!Обратная связь