Скачать через торрент музыку Hardline - Danger Zone - 2012 FR CD 552, FLAC бесплатно без регистрации torrent

Если у вас наблюдаются проблемы со скриншотами, переходом по ссылками, скачиванием торрентов - проблемы в блокировщике рекламы AdBlock. #хорошегоДня!


Статистика раздачи
Размер:  421 MB   |    Зарегистрирован:  4 года 9 месяцев   |    .torrent скачан:  13 раз   |   
Раздают:  1  
   
Загрузка...
 
Автор Сообщение

Galfimbul

avatar Galfimbul


HARDLINE / Danger Zone

Жанр: Melodic Hard Rock
Страна-производитель диска: Italy
Год издания: 2012
Издатель (лейбл): Frontiers
Номер по каталогу: FR CD 552
Страна: USA
Аудиокодек: FLAC (*.flac)
Тип рипа: image+.cue
Битрейт аудио: lossless
Продолжительность: 00:57:42
Источник (релизер): Zak Stevens
Наличие сканов в содержимом раздачи: да
Треклист:
1. Fever Dreams
2. 10.000 Reasons
3. Danger Zone
4. What I'd Like
5. Stronger Than Me
6. Never Too Late for Love
7. Stay
8. I Don't Want To Breakaway
9. Look At You Now
10. Please Have Faith in Me
11. Show Me Your Love
12. The Only One
Exact Audio Copy V1.0 beta 3 from 29. August 2011

Отчёт EAC об извлечении, выполненном 29. октября 2012, 23:11

Hardline / Danger Zone

Дисковод: MATSHITADVD-RAM UJ-861H Adapter: 0 ID: 0

Режим чтения : ДостоверностьИспользование точного потока : ДаОтключение кэша аудио : ДаИспользование указателей C2 : Нет

Коррекция смещения при чтении : 102Способность читать области Lead-in и Lead-out : НетЗаполнение пропущенных сэмплов тишиной : ДаУдаление блоков с тишиной в начале и конце : НетПри вычислениях CRC использовались нулевые сэмплы : ДаИнтерфейс : Встроенный Win32-интерфейс для Win NT/2000

Выходной формат : Внутренние WAV-операцииФормат сэмплов : 44.100 Гц; 16 бит; стерео

TOC извлечённого CD

Трек | Старт | Длительность | Начальный сектор | Конечный сектор --------------------------------------------------------------------- 1 | 0:00.00 | 5:14.34 | 0 | 23583 2 | 5:14.34 | 4:13.34 | 23584 | 42592 3 | 9:27.68 | 6:03.26 | 42593 | 69843 4 | 15:31.19 | 4:22.56 | 69844 | 89549 5 | 19:54.00 | 4:58.00 | 89550 | 111899 6 | 24:52.00 | 4:22.31 | 111900 | 131580 7 | 29:14.31 | 5:39.34 | 131581 | 157039 8 | 34:53.65 | 3:55.37 | 157040 | 174701 9 | 38:49.27 | 4:02.00 | 174702 | 192851 10 | 42:51.27 | 4:48.09 | 192852 | 214460 11 | 47:39.36 | 4:59.32 | 214461 | 236917 12 | 52:38.68 | 5:03.73 | 236918 | 259715

Характеристики диапазона извлечения и сообщения об ошибках

Выбранный диапазон

Имя файла D:\Исходные торренты\Hardline - Danger Zone.wav

Пиковый уровень 99.9 % Скорость извлечения 2.6 X Качество диапазона 100.0 % CRC теста CD1AB79D CRC копии CD1AB79D Копирование... OK

Ошибок не произошло

AccurateRip: сводка

Трек 1 : извлечено точно (доверие 2) [AF0E411F] (AR v2)Трек 2 : извлечено точно (доверие 2) [381AFFDF] (AR v2)Трек 3 : извлечено точно (доверие 2) [4A8F549C] (AR v2)Трек 4 : извлечено точно (доверие 2) [64B542DA] (AR v2)Трек 5 : извлечено точно (доверие 2) [6B4AFA4C] (AR v2)Трек 6 : извлечено точно (доверие 2) [26A80379] (AR v2)Трек 7 : извлечено точно (доверие 2) [0B93FE24] (AR v2)Трек 8 : извлечено точно (доверие 2) [2C4C759A] (AR v2)Трек 9 : извлечено точно (доверие 2) [E46C8FC5] (AR v2)Трек 10 : извлечено точно (доверие 2) [4D44ACD9] (AR v2)Трек 11 : извлечено точно (доверие 2) [A45D2A06] (AR v2)Трек 12 : извлечено точно (доверие 2) [17A460AD] (AR v2)

Все треки извлечены точно

Конец отчёта
Johnny Gioeli Vocals
Thorsten Koehne Guitars
Alessandro Del Vecchio Keyboards, Backing Vocals
Anna Portalupi Bass
Francesco Jovino Drums


Трекер:  [ 11-Ноя-2012 14:51 ]

  

Скачать .torrent

Размер .torrent файла 17 KB


Размер: 421 MB
Хэш (hash) релиза: babda5dad5f0fc71363c4706b2920bf0ec7a5749

Еще никто не оставлял запись к записи скачать торрент Hardline - Danger Zone - 2012 FR CD 552, FLAC . Будь первым!

!Обратная связь