Скачать через торрент музыку Howe II бесплатно без регистрации torrent

Если у вас наблюдаются проблемы со скриншотами, переходом по ссылками, скачиванием торрентов - проблемы в блокировщике рекламы AdBlock. #хорошегоДня!


Статистика раздачи
Размер:  256 MB   |    Зарегистрирован:  4 года 11 месяцев   |    .torrent скачан:  15 раз   |   
Раздают:  1  
   
Загрузка...
 
Автор Сообщение

Galfimbul

avatar Galfimbul


Howe II / Now Here This
Жанр: Hard Rock
Страна-производитель диска: USA
Год издания: 1991
Издатель (лейбл): Shrapnel Records
Номер по каталогу: SH-1053cd
Страна: USA
Аудиокодек: APE (*.ape)
Тип рипа: image+.cue
Битрейт аудио: lossless
Продолжительность: 39:24
Источник (релизер): Свой рип с оригинального CD
Наличие сканов в содержимом раздачи: 300dpi
Tracks:
01. Fat Cat
02. The Ride
03. Now Hear This
04. Motherlode
05. Bigger the Bite
06. Crowd Pleaser
07. A Delicacy
08. Tip of My Tongue
09. Heart of a Woman
10. A Few Good Men

Personnel:
Al Howe - Lead Vocals
Greg Howe - Guitar, Vocals
Vern Parsons - Bass, Vocals
Kevin Soffera - Drums, Vocals
Exact Audio Copy V0.99 prebeta 4 from 23. January 2008

Отчёт EAC об извлечении, выполненном 29. октября 2012, 17:07

HOWE II / Now Here This

Дисковод: ASUS DRW-22B2L b Adapter: 0 ID: 0

Режим чтения : ДостоверностьИспользование точного потока : ДаОтключение кэша аудио : ДаИспользование указателей C2 : Нет

Коррекция смещения при чтении : 6Способность читать области Lead-in и Lead-out : НетЗаполнение пропущенных сэмплов тишиной : ДаУдаление блоков с тишиной в начале и конце : НетПри вычислениях CRC использовались нулевые сэмплы : ДаИнтерфейс : Встроенный Win32-интерфейс для Win NT/2000

Выходной формат : Внутренние WAV-операцииФормат сэмплов : 44.100 Гц; 16 бит; стерео

TOC извлечённого CD

Трек | Старт | Длительность | Начальный сектор | Конечный сектор --------------------------------------------------------------------- 1 | 0:00.00 | 4:18.00 | 0 | 19349 2 | 4:18.00 | 3:48.45 | 19350 | 36494 3 | 8:06.45 | 4:46.00 | 36495 | 57944 4 | 12:52.45 | 3:56.35 | 57945 | 75679 5 | 16:49.05 | 3:34.55 | 75680 | 91784 6 | 20:23.60 | 4:08.42 | 91785 | 110426 7 | 24:32.27 | 2:05.15 | 110427 | 119816 8 | 26:37.42 | 3:58.68 | 119817 | 137734 9 | 30:36.35 | 5:12.02 | 137735 | 161136 10 | 35:48.37 | 3:36.00 | 161137 | 177336

Характеристики диапазона извлечения и сообщения об ошибках

Выбранный диапазон

Имя файла D:\booddoom\HOWE II - Now Here This.wav

Пиковый уровень 100.0 % Качество диапазона 100.0 % CRC теста AFCE6099 CRC копии AFCE6099 Копирование... OK

Ошибок не произошло

AccurateRip: сводка

Трек 1 точность не определена (достоверность 1) [71E8EDA6], AccurateRip вернул [2E3D9428]Трек 2 точность не определена (достоверность 1) [406E5ACD], AccurateRip вернул [D3AF2E4C]Трек 3 точность не определена (достоверность 1) [08B8D048], AccurateRip вернул [E8A2CFB9]Трек 4 точность не определена (достоверность 1) [65BA08EC], AccurateRip вернул [B3570245]Трек 5 точность не определена (достоверность 1) [D701858E], AccurateRip вернул [0DB34633]Трек 6 точность не определена (достоверность 1) [75C080AF], AccurateRip вернул [EE934B36]Трек 7 точность не определена (достоверность 1) [2942DEB0], AccurateRip вернул [CCCE1AD2]Трек 8 точность не определена (достоверность 1) [D67E20AE], AccurateRip вернул [9D5D0D9A]Трек 9 точность не определена (достоверность 1) [12738328], AccurateRip вернул [A2C20A39]Трек 10 точность не определена (достоверность 1) [B5B30B39], AccurateRip вернул [55B1A830]

Ни один трек не прошёл проверки на точностьВ вашей базе может быть иной вариант штамповки диска

Конец отчёта
REM DISCID 81093C0AREM COMMENT "ExactAudioCopy v0.99pb4"PERFORMER "HOWE II"TITLE "Now Here This"FILE "HOWE II - Now Here This.wav" WAVE TRACK 01 AUDIO TITLE "Fat Cat" PERFORMER "HOWE II" INDEX 01 00:00:00 TRACK 02 AUDIO TITLE "The Ride" PERFORMER "HOWE II" INDEX 00 04:16:61 INDEX 01 04:18:00 TRACK 03 AUDIO TITLE "Now Here This" PERFORMER "HOWE II" INDEX 00 08:05:71 INDEX 01 08:06:45 TRACK 04 AUDIO TITLE "Motherlode" PERFORMER "HOWE II" INDEX 00 12:52:01 INDEX 01 12:52:45 TRACK 05 AUDIO TITLE "Bigger The Bite" PERFORMER "HOWE II" INDEX 00 16:48:34 INDEX 01 16:49:05 TRACK 06 AUDIO TITLE "Crowd Pleaser" PERFORMER "HOWE II" INDEX 00 20:21:46 INDEX 01 20:23:60 TRACK 07 AUDIO TITLE "A Delicacy" PERFORMER "HOWE II" INDEX 00 24:30:56 INDEX 01 24:32:27 TRACK 08 AUDIO TITLE "Tip Of My Tongue" PERFORMER "HOWE II" INDEX 00 26:35:74 INDEX 01 26:37:42 TRACK 09 AUDIO TITLE "Heart of a Woman" PERFORMER "HOWE II" INDEX 00 30:35:24 INDEX 01 30:36:35 TRACK 10 AUDIO TITLE "A Few Good Man" PERFORMER "HOWE II" INDEX 00 35:46:37 INDEX 01 35:48:37


Трекер:  [ 11-Ноя-2012 14:28 ]

  

Скачать .torrent

Размер .torrent файла 11 KB


Размер: 256 MB
Хэш (hash) релиза: f8468e81ab1d0d662fce43d0bc2e95457ac38d42

Торренты, похожие на Howe II скачать торрент

Форум Название Автор Размер S L Добавлен
Rосk | Mеtаl | Аltеrnаtivе, Рunk, Indереndеnt (losslеss) ·· (Instrumental/Fusion Rock) Howe II (Greg Howe) - High Gear (1st Japan Press) - 1989, APE (image+.cue) lossless Galfimbul 281375566268 MB 0 0 1334992140

10:09

21-Апр-12

Еще никто не оставлял запись к записи скачать торрент Howe II . Будь первым!

!Обратная связь