Скачать через торрент музыку Zar - From Welcome... To Goodbye бесплатно без регистрации torrent

Если у вас наблюдаются проблемы со скриншотами, переходом по ссылками, скачиванием торрентов - проблемы в блокировщике рекламы AdBlock. #хорошегоДня!


Статистика раздачи
Размер:  471 MB   |    Зарегистрирован:  4 года 9 месяцев   |    .torrent скачан:  10 раз   |   
Раздают:  1  
   
Загрузка...
 
Автор Сообщение

Galfimbul

avatar Galfimbul


Zar / From Welcome... To Goodbye (Japanese Ed.)

Жанр: Melodic Heavy Metal
Страна-производитель диска: Japan
Год издания: 1993
Издатель (лейбл): Victor Entertainment
Номер по каталогу: VICP-5320
Страна: Germany
Аудиокодек: FLAC (*.flac)
Тип рипа: image+.cue
Битрейт аудио: lossless
Продолжительность: 55:23
Источник (релизер): ilijan (ему спасибо )
Наличие сканов в содержимом раздачи: да
Треклист:
1.Welcome
2.How Many Tears
3.A Touch of Ebony
4.Thin Line
5.Eagles Flight
6.Never so Alone
7.I Can't Believe
8.Angel
9.I'm Still Tryin'
10.Bushido
11.When the Fire Burns
12.Highlands
13.Goodbye
14.Didn't Know It Was Love (Bonus Track for Japan)
Exact Audio Copy V0.99 prebeta 5 from 4. May 2009

EAC extraction logfile from 14. October 2012, 22:01

Zar / From Welcome...To Goodbye

Used drive : ATAPI iHAS624 B Adapter: 2 ID: 0

Read mode : SecureUtilize accurate stream : YesDefeat audio cache : YesMake use of C2 pointers : No

Read offset correction : 6Overread into Lead-In and Lead-Out : NoFill up missing offset samples with silence : YesDelete leading and trailing silent blocks : NoNull samples used in CRC calculations : YesUsed interface : Installed external ASPI interface

Used output format : User Defined EncoderSelected bitrate : 40 kBit/sQuality : HighAdd ID3 tag : NoCommand line compressor : C:\Program Files\Exact Audio Copy\Flac\flac.exeAdditional command line options : -6 -V %s

TOC of the extracted CD

Track | Start | Length | Start sector | End sector --------------------------------------------------------- 1 | 0:00.37 | 2:11.50 | 37 | 9911 2 | 2:12.12 | 4:03.03 | 9912 | 28139 3 | 6:15.15 | 4:38.25 | 28140 | 49014 4 | 10:53.40 | 4:06.42 | 49015 | 67506 5 | 15:00.07 | 4:13.35 | 67507 | 86516 6 | 19:13.42 | 3:57.25 | 86517 | 104316 7 | 23:10.67 | 4:06.65 | 104317 | 122831 8 | 27:17.57 | 5:50.15 | 122832 | 149096 9 | 33:07.72 | 4:53.25 | 149097 | 171096 10 | 38:01.22 | 3:00.15 | 171097 | 184611 11 | 41:01.37 | 4:04.33 | 184612 | 202944 12 | 45:05.70 | 3:09.07 | 202945 | 217126 13 | 48:15.02 | 2:10.25 | 217127 | 226901 14 | 50:25.27 | 4:58.30 | 226902 | 249281

Range status and errors

Selected range

Filename D:\Download\Zar - From Welcome...To Goodbye.wav

Peak level 86.8 % Range quality 100.0 % Copy CRC 4521058F Copy OK

No errors occurred

AccurateRip summary

Track 1 accurately ripped (confidence 1) [A99A91D2]Track 2 accurately ripped (confidence 1) [C583BEBD]Track 3 accurately ripped (confidence 1) [BD6167FB]Track 4 accurately ripped (confidence 1) [AFDD25C9]Track 5 accurately ripped (confidence 1) [D5209486]Track 6 accurately ripped (confidence 1) [ED299F02]Track 7 accurately ripped (confidence 1) [3A43B034]Track 8 accurately ripped (confidence 1) [414A9CBD]Track 9 accurately ripped (confidence 1) [11542729]Track 10 accurately ripped (confidence 1) [A7A59375]Track 11 accurately ripped (confidence 1) [D735DD69]Track 12 accurately ripped (confidence 1) [DCC88D4B]Track 13 accurately ripped (confidence 1) [35C636EA]Track 14 accurately ripped (confidence 1) [6F655D10]

All tracks accurately ripped

End of status report
Доп. информация: Группа начинала, как хард-рок группа, но изменили стиль на мелодичный хэви / пауэр-метал со второго альбома .
Thomas Bloch - Vocals
Tommy Clauss - Guitars
Wolf Urban - Bass
Marcel Ash - Drums
Jerry Schäfer - Keyboards


Трекер:  [ 11-Ноя-2012 14:28 ]

  

Скачать .torrent

Размер .torrent файла 20 KB


Размер: 471 MB
Хэш (hash) релиза: ca9f239d9b1f2ae5e496affa12317bbb8be51574

Еще никто не оставлял запись к записи скачать торрент Zar - From Welcome... To Goodbye . Будь первым!

!Обратная связь