Скачать через торрент музыку Sam Morrison Band - Sam Morrison Band - 2002 бесплатно без регистрации torrent

Если у вас наблюдаются проблемы со скриншотами, переходом по ссылками, скачиванием торрентов - проблемы в блокировщике рекламы AdBlock. #хорошегоДня!


Статистика раздачи
Размер:  276 MB   |    Зарегистрирован:  4 года 9 месяцев   |    .torrent скачан:  5 раз   |   
Раздают:  1  
   
Загрузка...
 
Автор Сообщение

Galfimbul

avatar Galfimbul


Sam Morrison Band - Sam Morrison Band

Жанр: Southern-Rock, Blues-Rock
Страна-производитель диска: USA
Год издания диска: 1997
Издатель (лейбл): Convalian Records
Номер по каталогу: CP-D50001
Страна: USA
Аудио кодек: WAVPack (*.wv)
Тип рипа: image+.cue
Битрейт аудио: lossless
Продолжительность: 00:37:52
Источник (релизер): Гордый
Наличие сканов в содержимом раздачи: да

Треклист:

01. I Gotta Ride 03:04
02. Kinda Like Love 05:06
03. Give Me A Try 04:39
04. I Don't Know 03:47
05. Ready Or Not (3:26
06. Can't You See 08:08
07. Daylite's Burnin 04:04
08. Peacekeepers 05:38
Exact Audio Copy V1.0 beta 3 from 29. August 2011

EAC extraction logfile from

Sam Morrison Band / Sam Morrison Band

Used drive : HL-DT-STDVD-RAM GH22LP20 Adapter: 4 ID: 1

Read mode : SecureUtilize accurate stream : YesDefeat audio cache : YesMake use of C2 pointers : No

Read offset correction : 102Overread into Lead-In and Lead-Out : NoFill up missing offset samples with silence : YesDelete leading and trailing silent blocks : NoNull samples used in CRC calculations : YesUsed interface : Installed external ASPI interface

Used output format : User Defined EncoderSelected bitrate : 896 kBit/sQuality : HighAdd ID3 tag : NoCommand line compressor : C:\Program Files (x86)\Exact Audio Copy\WAV Pack\wavpack.exeAdditional command line options : -hlmx2 %source% %dest%

TOC of the extracted CD

Track | Start | Length | Start sector | End sector --------------------------------------------------------- 1 | 0:00.00 | 3:03.45 | 0 | 13769 2 | 3:03.45 | 5:05.50 | 13770 | 36694 3 | 8:09.20 | 4:38.65 | 36695 | 57609 4 | 12:48.10 | 3:46.74 | 57610 | 74633 5 | 16:35.09 | 3:25.74 | 74634 | 90082 6 | 20:01.08 | 8:08.08 | 90083 | 126690 7 | 28:09.16 | 4:03.74 | 126691 | 144989 8 | 32:13.15 | 5:38.07 | 144990 | 170346

Range status and errors

Selected range

Filename

Peak level 96.6 % Extraction speed 2.4 X Range quality 100.0 % Test CRC BD9E6231 Copy CRC BD9E6231 Copy OK

No errors occurred

AccurateRip summary

Track 1 accurately ripped (confidence 1) [B47A9E1F] (AR v1)Track 2 accurately ripped (confidence 1) [A8A7FDBD] (AR v1)Track 3 accurately ripped (confidence 1) [562C5B74] (AR v1)Track 4 accurately ripped (confidence 1) [3AAACE1B] (AR v1)Track 5 accurately ripped (confidence 1) [2C9AEF59] (AR v1)Track 6 accurately ripped (confidence 1) [BA92D9BB] (AR v1)Track 7 accurately ripped (confidence 1) [B3C547EA] (AR v1)Track 8 cannot be verified as accurate (confidence 1) [6068B56A], AccurateRip returned [ABDC6005] (AR v2)

7 трек(и) скопированы точно 1 трек(и) не удалось проверить на точность

Some tracks could not be verified as accurate

End of status report
REM GENRE "Southern Rock"REM DATE 2002REM DISCID 6E08DF08REM COMMENT "ExactAudioCopy v1.0b3"PERFORMER "Sam Morrison Band"TITLE "Sam Morrison Band"FILE "Sam Morrison Band - Sam Morrison Band.wv" WAVE TRACK 01 AUDIO TITLE "I Gotta Ride" PERFORMER "Sam Morrison Band" INDEX 01 00:00:00 TRACK 02 AUDIO TITLE "Kinda Like Love" PERFORMER "Sam Morrison Band" INDEX 00 03:01:45 INDEX 01 03:03:45 TRACK 03 AUDIO TITLE "Give Me A Try" PERFORMER "Sam Morrison Band" INDEX 00 08:07:20 INDEX 01 08:09:20 TRACK 04 AUDIO TITLE "I Don't Know" PERFORMER "Sam Morrison Band" INDEX 00 12:46:10 INDEX 01 12:48:10 TRACK 05 AUDIO TITLE "Ready Or Not" PERFORMER "Sam Morrison Band" INDEX 00 16:33:09 INDEX 01 16:35:09 TRACK 06 AUDIO TITLE "Can't You See" PERFORMER "Sam Morrison Band" INDEX 00 19:59:08 INDEX 01 20:01:08 TRACK 07 AUDIO TITLE "Daylite's Burnin" PERFORMER "Sam Morrison Band" INDEX 00 28:07:16 INDEX 01 28:09:16 TRACK 08 AUDIO TITLE "Peacekeepers" PERFORMER "Sam Morrison Band" INDEX 00 32:11:15 INDEX 01 32:13:15
-----------------------

DON'T MODIFY THIS FILE

-----------------------

PERFORMER: auCDtect Task Manager, ver. 1.5.1RC4 build 1.5.1.5Copyright (c) 2008-2010 y-soft. All rights reservedhttp://y-soft.org

ANALYZER: auCDtect: CD records authenticity detector, version 0.8.2Copyright (c) 2004 Oleg Berngardt. All rights reserved.Copyright (c) 2004 Alexander Djourik. All rights reserved.

FILE: Sam Morrison Band - Sam Morrison Band.wv Size: 284766067 Hash: 9C75C6D454DC1F8D126176B89FE3B8C7 Accuracy: -m8 Conclusion: CDDA 100% Signature: 5150C9D428B216158D19F41DF0AE7BDADCD5D1CA
Доп. информация:
Greg Kasparian - Bass
Steven Cenker - Guitar, Vocals
Bart Robley - Drums
Sam Morrison - Guitar, Vocals
The Sam Morrison Band is on a mission. Tired of all the corporate, “politically correct” processed music that is being spoon fed to the public, The Sam Morrison Band is determined to bring back something that is lost on today’s radio……real music. Imagine that; real musicians, playing real songs, with real instruments for real people. No drum loops, no DJ’s, just 100 proof Rock and Roll.
Steeped in the Southern Rock tradition of bands such as Lynyrd Skynyrd and the Allman Brothers, The Sam Morrison Band is proud to carry on the message of true American values. Themes such as pride in God, Country, and the American Dream run throughout their music.
In the current state of the world, it’s no wonder that people are looking back, remembering when things were good and longing for any reminders of the “Good Old Days”. The music of the Sam Morrison Band does just that. It reminds us of when things were good and shows the promise that things can be good again.
Real Songs, Real Music……………The Sam Morrison Band!
For the past few years the SMB has been traveling around the world spreading their gospel of 100 Proof Southern Rock and Roll, playing it the way it was meant to be played, dripping with Jack Daniels and BBQ sauce! Their high energy live performances and faithful recreations of the Southern Rock Classics have won them converts everywhere they go and earned them the title of "Harley Event Specialists" due to the large number of "Biker" events they have performed for.
With the release of their debut CD release on Convalian Records, the SMB is enjoying the rewards of performing their own music. They have had the opportunity to play with many of today's biggest stars including: Lynyrd Skynyrd, 38 Special, Marshall Tucker, Diamond Rio, Confederate Railroad. Their debut single, "I Gotta Ride" is quickly becoming a new "Biker Classic"!
The SMB spends most of their time on the west coast, however they have completed successful tours not only in Europe but in the Far East as well. They are currently recording their second CD titled "Dig It or Don't!"


Трекер:  [ 11-Ноя-2012 14:27 ]

  

Скачать .torrent

Размер .torrent файла 12 KB


Размер: 276 MB
Хэш (hash) релиза: 627ac3ddb7e39f97efa413295647866f840403c6

Торренты, похожие на Sam Morrison Band - Sam Morrison Band - 2002 скачать торрент

Форум Название Автор Размер S L Добавлен
Зарубежный Rock ·· (Southern Rock) The Sam Morrison Band (and Turn The Page) - 3 albums - 2002 - 2011, MP3, 192-320 kbps Umakiro 281869199269 MB 0 0 1341326220

17:37

3-Июл-12

Еще никто не оставлял запись к записи скачать торрент Sam Morrison Band - Sam Morrison Band - 2002 . Будь первым!

!Обратная связь