Скачать через торрент музыку BoDeans - Homebrewed бесплатно без регистрации torrent

Если у вас наблюдаются проблемы со скриншотами, переходом по ссылками, скачиванием торрентов - проблемы в блокировщике рекламы AdBlock. #хорошегоДня!


Статистика раздачи
Размер:  728 MB   |    Зарегистрирован:  5 лет   |    .torrent скачан:  7 раз   |   
Раздают:  1  
   
Загрузка...
 
Автор Сообщение

Galfimbul

avatar Galfimbul


BoDeans / Homebrewed (Live From The Pabst)

Жанр: Indie Rock/Country
Страна-производитель диска: USA
Год издания: 2005
Издатель (лейбл): Back Porch
Номер по каталогу: 09463-30889-2-4
Страна: USA
Аудиокодек: FLAC (*.flac)
Тип рипа: tracks+.cue
Битрейт аудио: lossless
Продолжительность: 01:00:50. + 00:43:05.
Источник (релизер): clustert
Наличие сканов в содержимом раздачи: да
Треклист:
CD 1
01 Texas Ride Song
02 (We Can) Live
03 No One
04 You Don't Get Much
05 If It Makes You
06 Sleep
07 Still The Night
08 Feed The Fire
09 Once In A While
10 Good Things

CD 2
01 Naked
02 617
03 Crazy
04 True Devotion
05 Two Souls
06 She's A Runaway
07 Fadeaway
08 Closer To Free
Exact Audio Copy V1.0 beta 3 from 29. August 2011

Отчёт EAC об извлечении, выполненном 28. октября 2012, 18:51

BoDeans / Homebrewed - Live from the Pabst - Disc 1

Дисковод: ASUS DRW-1814BLT Adapter: 5 ID: 0

Режим чтения : ДостоверностьИспользование точного потока : ДаОтключение кэша аудио : ДаИспользование указателей C2 : Нет

Коррекция смещения при чтении : 6Способность читать области Lead-in и Lead-out : НетЗаполнение пропущенных сэмплов тишиной : ДаУдаление блоков с тишиной в начале и конце : НетПри вычислениях CRC использовались нулевые сэмплы : ДаИнтерфейс : Встроенный Win32-интерфейс для Win NT/2000Обработка зазоров : Добавлено к предыдущему треку

Выходной формат : Пользовательский кодировщикВыбранный битрейт : 128 kBit/sКачество : НизкийДобавление ID3-тега : НетУтилита сжатия : C:\Program Files\Exact Audio Copy\Flac\flac.exeДополнительные параметры : -V -8 -T "Genre=%genre%" -T "Artist=%artist%" -T "Title=%title%" -T "Album=%albumtitle%" -T "Date=%year%" -T "Tracknumber=%tracknr%" -T "Comment=EAC1.0b2 FLAC -8" %source%

TOC извлечённого CD

Трек | Старт | Длительность | Начальный сектор | Конечный сектор --------------------------------------------------------------------- 1 | 0:00.00 | 6:19.14 | 0 | 28438 2 | 6:19.14 | 5:39.35 | 28439 | 53898 3 | 11:58.49 | 5:15.12 | 53899 | 77535 4 | 17:13.61 | 6:34.69 | 77536 | 107154 5 | 23:48.55 | 4:25.64 | 107155 | 127093 6 | 28:14.44 | 6:08.19 | 127094 | 154712 7 | 34:22.63 | 6:35.19 | 154713 | 184356 8 | 40:58.07 | 5:45.36 | 184357 | 210267 9 | 46:43.43 | 6:32.35 | 210268 | 239702 10 | 53:16.03 | 7:34.47 | 239703 | 273799

Трек 1

Имя файла R:\Раздача\BoDeans - Homebrewed (live from the pabst) - 2005\Cd 1\01 Texas Ride Song.wav

Длина предзазора 0:00:02.00

Пиковый уровень 98.8 % Скорость извлечения 2.8 X Качество трека 100.0 % CRC теста 985252FF CRC копии 985252FF Копирование... OK

Трек 2

Имя файла R:\Раздача\BoDeans - Homebrewed (live from the pabst) - 2005\Cd 1\02 (We Can) Live.wav

Пиковый уровень 98.8 % Скорость извлечения 3.2 X Качество трека 100.0 % CRC теста 10F15405 CRC копии 10F15405 Копирование... OK

Трек 3

Имя файла R:\Раздача\BoDeans - Homebrewed (live from the pabst) - 2005\Cd 1\03 No One.wav

Пиковый уровень 98.8 % Скорость извлечения 3.5 X Качество трека 100.0 % CRC теста 1C8987EE CRC копии 1C8987EE Копирование... OK

Трек 4

Имя файла R:\Раздача\BoDeans - Homebrewed (live from the pabst) - 2005\Cd 1\04 You Don't Get Much.wav

Пиковый уровень 98.8 % Скорость извлечения 3.9 X Качество трека 100.0 % CRC теста 0B70F8C5 CRC копии 0B70F8C5 Копирование... OK

Трек 5

Имя файла R:\Раздача\BoDeans - Homebrewed (live from the pabst) - 2005\Cd 1\05 If It Makes You.wav

Длина предзазора 0:00:01.54

Пиковый уровень 98.8 % Скорость извлечения 4.1 X Качество трека 100.0 % CRC теста 48096DD1 CRC копии 48096DD1 Копирование... OK

Трек 6

Имя файла R:\Раздача\BoDeans - Homebrewed (live from the pabst) - 2005\Cd 1\06 Sleep.wav

Длина предзазора 0:00:01.74

Пиковый уровень 98.8 % Скорость извлечения 4.5 X Качество трека 100.0 % CRC теста AE7E1742 CRC копии AE7E1742 Копирование... OK

Трек 7

Имя файла R:\Раздача\BoDeans - Homebrewed (live from the pabst) - 2005\Cd 1\07 Still The Night.wav

Пиковый уровень 98.8 % Скорость извлечения 4.8 X Качество трека 100.0 % CRC теста 33990B09 CRC копии 33990B09 Копирование... OK

Трек 8

Имя файла R:\Раздача\BoDeans - Homebrewed (live from the pabst) - 2005\Cd 1\08 Feed The Fire.wav

Длина предзазора 0:00:01.74

Пиковый уровень 98.8 % Скорость извлечения 5.0 X Качество трека 100.0 % CRC теста 56BEC60A CRC копии 56BEC60A Копирование... OK

Трек 9

Имя файла R:\Раздача\BoDeans - Homebrewed (live from the pabst) - 2005\Cd 1\09 Once In A While.wav

Длина предзазора 0:00:01.74

Пиковый уровень 98.8 % Скорость извлечения 5.2 X Качество трека 100.0 % CRC теста F3588513 CRC копии F3588513 Копирование... OK

Трек 10

Имя файла R:\Раздача\BoDeans - Homebrewed (live from the pabst) - 2005\Cd 1\10 Good Things.wav

Длина предзазора 0:00:01.74

Пиковый уровень 98.8 % Скорость извлечения 5.6 X Качество трека 100.0 % CRC теста DF8F3464 CRC копии DF8F3464 Копирование... OK

Ошибок не произошло

Конец отчёта

==== Контрольная сумма отчёта EA002DE72C808DF366BBEE531BCBF66341858340F3953FB553A9DE82C6CDB18A ====

Exact Audio Copy V1.0 beta 3 from 29. August 2011

Отчёт EAC об извлечении, выполненном 28. октября 2012, 19:36

BoDeans / Homebrewed - Live from the Pabst - Disc 2

Дисковод: ASUS DRW-1814BLT Adapter: 4 ID: 0

Режим чтения : ДостоверностьИспользование точного потока : ДаОтключение кэша аудио : ДаИспользование указателей C2 : Нет

Коррекция смещения при чтении : 6Способность читать области Lead-in и Lead-out : НетЗаполнение пропущенных сэмплов тишиной : ДаУдаление блоков с тишиной в начале и конце : НетПри вычислениях CRC использовались нулевые сэмплы : ДаИнтерфейс : Встроенный Win32-интерфейс для Win NT/2000Обработка зазоров : Добавлено к предыдущему треку

Выходной формат : Пользовательский кодировщикВыбранный битрейт : 128 kBit/sКачество : НизкийДобавление ID3-тега : НетУтилита сжатия : C:\Program Files\Exact Audio Copy\Flac\flac.exeДополнительные параметры : -V -8 -T "Genre=%genre%" -T "Artist=%artist%" -T "Title=%title%" -T "Album=%albumtitle%" -T "Date=%year%" -T "Tracknumber=%tracknr%" -T "Comment=EAC1.0b2 FLAC -8" %source%

TOC извлечённого CD

Трек | Старт | Длительность | Начальный сектор | Конечный сектор --------------------------------------------------------------------- 1 | 0:00.00 | 5:53.71 | 0 | 26545 2 | 5:53.71 | 4:55.63 | 26546 | 48733 3 | 10:49.59 | 4:35.05 | 48734 | 69363 4 | 15:24.64 | 5:45.03 | 69364 | 95241 5 | 21:09.67 | 4:28.41 | 95242 | 115382 6 | 25:38.33 | 4:05.22 | 115383 | 133779 7 | 29:43.55 | 8:48.32 | 133780 | 173411 8 | 38:32.12 | 4:33.32 | 173412 | 193918

Трек 1

Имя файла R:\Раздача\BoDeans - Homebrewed (live from the pabst) - 2005\Cd 2\01 Naked.wav

Длина предзазора 0:00:02.00

Пиковый уровень 98.8 % Скорость извлечения 2.7 X Качество трека 100.0 % CRC теста 13D8C164 CRC копии 13D8C164 Копирование... OK

Трек 2

Имя файла R:\Раздача\BoDeans - Homebrewed (live from the pabst) - 2005\Cd 2\02 617.wav

Длина предзазора 0:00:02.00

Пиковый уровень 98.8 % Скорость извлечения 3.1 X Качество трека 100.0 % CRC теста BD5CFDA6 CRC копии BD5CFDA6 Копирование... OK

Трек 3

Имя файла R:\Раздача\BoDeans - Homebrewed (live from the pabst) - 2005\Cd 2\03 Crazy.wav

Длина предзазора 0:00:02.00

Пиковый уровень 98.8 % Скорость извлечения 3.4 X Качество трека 100.0 % CRC теста 0DA874C7 CRC копии 0DA874C7 Копирование... OK

Трек 4

Имя файла R:\Раздача\BoDeans - Homebrewed (live from the pabst) - 2005\Cd 2\04 True Devotion.wav

Длина предзазора 0:00:01.74

Пиковый уровень 98.8 % Скорость извлечения 3.8 X Качество трека 100.0 % CRC теста EB2ACAFB CRC копии EB2ACAFB Копирование... OK

Трек 5

Имя файла R:\Раздача\BoDeans - Homebrewed (live from the pabst) - 2005\Cd 2\05 Two Souls.wav

Пиковый уровень 98.8 % Скорость извлечения 3.5 X Качество трека 99.9 % CRC теста 65261839 CRC копии 65261839 Копирование... OK

Трек 6

Имя файла R:\Раздача\BoDeans - Homebrewed (live from the pabst) - 2005\Cd 2\06 She's A Runaway.wav

Длина предзазора 0:00:01.74

Пиковый уровень 98.8 % Скорость извлечения 4.1 X Качество трека 100.0 % CRC теста C50A4CCC CRC копии C50A4CCC Копирование... OK

Трек 7

Имя файла R:\Раздача\BoDeans - Homebrewed (live from the pabst) - 2005\Cd 2\07 Fadeaway.wav

Длина предзазора 0:00:01.74

Пиковый уровень 98.8 % Скорость извлечения 4.7 X Качество трека 100.0 % CRC теста 31860060 CRC копии 31860060 Копирование... OK

Трек 8

Имя файла R:\Раздача\BoDeans - Homebrewed (live from the pabst) - 2005\Cd 2\08 Closer To Free.wav

Длина предзазора 0:00:01.74

Пиковый уровень 98.8 % Скорость извлечения 4.7 X Качество трека 100.0 % CRC теста 30B7EFAB CRC копии 30B7EFAB Копирование... OK

Ошибок не произошло

Конец отчёта

==== Контрольная сумма отчёта 7F249EEA76361B4E2372D4D08FD404E44855E2471EC32D5D62BC7B761A98E636 ====
REM GENRE Indie

REM DATE 2005

REM DISCID 7A0E420A

REM COMMENT "ExactAudioCopy v1.0b3"

CATALOG 0094633089020

PERFORMER "BoDeans"

TITLE "Homebrewed - Live from the Pabst - Disc 1"

FILE "01 Texas Ride Song.wav" WAVE

TRACK 01 AUDIO

TITLE "Texas Ride Song"

PERFORMER "BoDeans"

ISRC H2EK10520741

INDEX 01 00:00:00

FILE "02 (We Can) Live.wav" WAVE

TRACK 02 AUDIO

TITLE "(We Can) Live"

PERFORMER "BoDeans"

ISRC H2EK10520742

INDEX 01 00:00:00

FILE "03 No One.wav" WAVE

TRACK 03 AUDIO

TITLE "No One"

PERFORMER "BoDeans"

ISRC H2EK10520742

INDEX 01 00:00:00

FILE "04 You Don't Get Much.wav" WAVE

TRACK 04 AUDIO

TITLE "You Don't Get Much"

PERFORMER "BoDeans"

ISRC H2EK10520744

INDEX 01 00:00:00

TRACK 05 AUDIO

TITLE "If It Makes You"

PERFORMER "BoDeans"

ISRC H2EK10520745

INDEX 00 06:33:15

FILE "05 If It Makes You.wav" WAVE

INDEX 01 00:00:00

TRACK 06 AUDIO

TITLE "Sleep"

PERFORMER "BoDeans"

ISRC H2EK10520746

INDEX 00 04:23:65

FILE "06 Sleep.wav" WAVE

INDEX 01 00:00:00

FILE "07 Still The Night.wav" WAVE

TRACK 07 AUDIO

TITLE "Still The Night"

PERFORMER "BoDeans"

ISRC H2EK10520747

INDEX 01 00:00:00

TRACK 08 AUDIO

TITLE "Feed The Fire"

PERFORMER "BoDeans"

ISRC H2EK10520748

INDEX 00 06:33:20

FILE "08 Feed The Fire.wav" WAVE

INDEX 01 00:00:00

TRACK 09 AUDIO

TITLE "Once In A While"

PERFORMER "BoDeans"

ISRC H2EK10520749

INDEX 00 05:43:37

FILE "09 Once In A While.wav" WAVE

INDEX 01 00:00:00

TRACK 10 AUDIO

TITLE "Good Things"

PERFORMER "BoDeans"

ISRC H2EK10520750

INDEX 00 06:30:36

FILE "10 Good Things.wav" WAVE

INDEX 01 00:00:00

REM GENRE Indie

REM DATE 2005

REM DISCID 600A1908

REM COMMENT "ExactAudioCopy v1.0b3"

CATALOG 0094633089129

PERFORMER "BoDeans"

TITLE "Homebrewed - Live from the Pabst - Disc 2"

FILE "01 Naked.wav" WAVE

TRACK 01 AUDIO

TITLE "Naked"

PERFORMER "BoDeans"

ISRC H2EK10520751

INDEX 01 00:00:00

TRACK 02 AUDIO

TITLE "617"

PERFORMER "BoDeans"

ISRC H2EK10520752

INDEX 00 05:51:71

FILE "02 617.wav" WAVE

INDEX 01 00:00:00

TRACK 03 AUDIO

TITLE "Crazy"

PERFORMER "BoDeans"

ISRC H2EK10520753

INDEX 00 04:53:63

FILE "03 Crazy.wav" WAVE

INDEX 01 00:00:00

TRACK 04 AUDIO

TITLE "True Devotion"

PERFORMER "BoDeans"

ISRC H2EK10520754

INDEX 00 04:33:06

FILE "04 True Devotion.wav" WAVE

INDEX 01 00:00:00

FILE "05 Two Souls.wav" WAVE

TRACK 05 AUDIO

TITLE "Two Souls"

PERFORMER "BoDeans"

ISRC H2EK10520755

INDEX 01 00:00:00

TRACK 06 AUDIO

TITLE "She's A Runaway"

PERFORMER "BoDeans"

ISRC H2EK10520756

INDEX 00 04:26:42

FILE "06 She's A Runaway.wav" WAVE

INDEX 01 00:00:00

TRACK 07 AUDIO

TITLE "Fadeaway"

PERFORMER "BoDeans"

ISRC H2EK10520757

INDEX 00 04:03:23

FILE "07 Fadeaway.wav" WAVE

INDEX 01 00:00:00

TRACK 08 AUDIO

TITLE "Closer To Free"

PERFORMER "BoDeans"

ISRC H2EK10520758

INDEX 00 08:46:33

FILE "08 Closer To Free.wav" WAVE

INDEX 01 00:00:00


Трекер:  [ 11-Ноя-2012 14:27 ]

  

Скачать .torrent

Размер .torrent файла 16 KB


Размер: 728 MB
Хэш (hash) релиза: ca29070e47637b1a12a7b3fcf9a47503eb1ad56c

Еще никто не оставлял запись к записи скачать торрент BoDeans - Homebrewed . Будь первым!

!Обратная связь