Скачать через торрент музыку Valentine Saloon - Super Duper - 1992, APE бесплатно без регистрации torrent

Если у вас наблюдаются проблемы со скриншотами, переходом по ссылками, скачиванием торрентов - проблемы в блокировщике рекламы AdBlock. #хорошегоДня!


Статистика раздачи
Размер:  293 MB   |    Зарегистрирован:  5 лет   |    .torrent скачан:  7 раз   |   
Раздают:  1  
   
Загрузка...
 
Автор Сообщение

Galfimbul

avatar Galfimbul


Valentine Saloon / Super Duper

Жанр: hard rock
Страна-производитель диска: USA
Год издания: 1992
Издатель (лейбл): Pipeline
Номер по каталогу: PIPECD 001
Страна: USA
Аудиокодек: APE (*.ape)
Тип рипа: image+.cue
Битрейт аудио: lossless
Источник (релизер): свой рипъ
Наличие сканов в содержимом раздачи: нет
Треклист:
01. Mind Bomb
02. Cadillac King Revolver
03. Smothered in Daisy
04. Under My Skin
05. Flying Machine
06. Mrs. Jones
07. Soak
08. Sentimental Girl
09. Private Revolution
10. Why I Like It
11. Firin' Line
12. Tangerine
Exact Audio Copy V0.99 prebeta 4 from 23. January 2008

EAC extraction logfile from 29. October 2012, 19:42

Valentine Saloon / Super Duper

Used drive : PIONEER DVD-RW DVR-212 Adapter: 5 ID: 0

Read mode : SecureUtilize accurate stream : YesDefeat audio cache : YesMake use of C2 pointers : No

Read offset correction : 48Overread into Lead-In and Lead-Out : NoFill up missing offset samples with silence : YesDelete leading and trailing silent blocks : NoNull samples used in CRC calculations : YesUsed interface : Native Win32 interface for Win NT & 2000

Used output format : Internal WAV RoutinesSample format : 44.100 Hz; 16 Bit; Stereo

TOC of the extracted CD

Track | Start | Length | Start sector | End sector --------------------------------------------------------- 1 | 0:00.32 | 3:21.60 | 32 | 15166 2 | 3:22.17 | 3:57.60 | 15167 | 33001 3 | 7:20.02 | 4:06.30 | 33002 | 51481 4 | 11:26.32 | 4:33.30 | 51482 | 71986 5 | 15:59.62 | 3:54.68 | 71987 | 89604 6 | 19:54.55 | 3:29.45 | 89605 | 105324 7 | 23:24.25 | 4:04.35 | 105325 | 123659 8 | 27:28.60 | 2:30.50 | 123660 | 134959 9 | 29:59.35 | 3:52.32 | 134960 | 152391 10 | 33:51.67 | 3:31.35 | 152392 | 168251 11 | 37:23.27 | 3:27.13 | 168252 | 183789 12 | 40:50.40 | 4:33.47 | 183790 | 204311

Range status and errors

Selected range

Filename D:\temp\Valentine Saloon - Super Duper.wav

Peak level 100.0 % Range quality 100.0 % Copy CRC C9834D32 Copy OK

No errors occurred

AccurateRip summary

Track 1 accurately ripped (confidence 4) [3EB4EC9E]Track 2 accurately ripped (confidence 4) [C8CDDB88]Track 3 accurately ripped (confidence 4) [994D8CE4]Track 4 accurately ripped (confidence 4) [8A5ABEE1]Track 5 accurately ripped (confidence 4) [16354321]Track 6 accurately ripped (confidence 4) [329AFFD5]Track 7 accurately ripped (confidence 4) [9404553C]Track 8 accurately ripped (confidence 4) [07FDFF41]Track 9 accurately ripped (confidence 4) [D77EA1CF]Track 10 accurately ripped (confidence 4) [51B4827F]Track 11 accurately ripped (confidence 4) [2D5FB1CC]Track 12 accurately ripped (confidence 4) [5A7D8AA6]

All tracks accurately ripped

End of status report


Трекер:  [ 11-Ноя-2012 14:27 ]

  

Скачать .torrent

Размер .torrent файла 24 KB


Размер: 293 MB
Хэш (hash) релиза: 4c65a3e7f0126ae7fc6ce0445c587442f6776414

Еще никто не оставлял запись к записи скачать торрент Valentine Saloon - Super Duper - 1992, APE . Будь первым!

!Обратная связь