Скачать через торрент музыку Living Life - Mysterious Dream - 1981 бесплатно без регистрации torrent

Если у вас наблюдаются проблемы со скриншотами, переходом по ссылками, скачиванием торрентов - проблемы в блокировщике рекламы AdBlock. #хорошегоДня!


Статистика раздачи
Размер:  188 MB   |    Зарегистрирован:  4 года 10 месяцев   |    .torrent скачан:  6 раз   |   
Раздают:  1  
   
Загрузка...
 
Автор Сообщение

Galfimbul

avatar Galfimbul


Living Life / Mysterious Dream
Жанр: Jazz-Rock, Fusion, Progressive Rock, Electronic
Год издания: 1981 (1995)
Издатель (лейбл): Mellow Records
Номер по каталогу: MMP 265
Страна: Italy
Аудиокодек: FLAC (*.flac)
Тип рипа: tracks+.cue
Битрейт аудио: lossless
Продолжительность: 34:52
Источник (релизер): вата (kotetsu29292929)
Наличие сканов в содержимом раздачи: да

Треклист:
1. Welcome People - 5:00 (Synthesizer [Arp 2600] – Aldo Valente; Synthesizer [Jamaha Cp 70], Electric Piano [Fender] – Swami Zekuta)
2. Mysterious Dream - 11:13
3. Oldeurope - 6:30 (Piano [Shimmel], Organ [Hammond B 3] – Swami Zekuta)
4. Living With The Music - 5:57 (Synthesizer [Arp 2600] – Aldo Valente)
5. Sliding Through The Clouds Of Cusco - 5:31 (Piano – Aldo Valente)
Welcome People Mysterious Dream Oldeurope Living With The Music
|| italianprog || discogs || rateyourmusic ||
Exact Audio Copy V1.0 beta 3 from 29. August 2011

EAC extraction logfile from 29. October 2012, 18:23

Living Life / Mysterious Dream

Used drive : ATAPI iHAS324 Y Adapter: 4 ID: 0

Read mode : SecureUtilize accurate stream : YesDefeat audio cache : YesMake use of C2 pointers : No

Read offset correction : 48Overread into Lead-In and Lead-Out : NoFill up missing offset samples with silence : YesDelete leading and trailing silent blocks : NoNull samples used in CRC calculations : YesUsed interface : Native Win32 interface for Win NT & 2000Gap handling : Appended to previous track

Used output format : User Defined EncoderSelected bitrate : 896 kBit/sQuality : HighAdd ID3 tag : NoCommand line compressor : C:\Program Files\Exact Audio Copy\flac.exeAdditional command line options : -8 -V -T "ARTIST=%artist%" -T "TITLE=%title%" -T "ALBUM=%albumtitle%" -T "DATE=%year%" -T "TRACKNUMBER=%tracknr%" -T "GENRE=%genre%" -T "PERFORMER=%albuminterpret%" -T "COMPOSER=%composer%" %haslyrics%--tag-from-file=LYRICS="%lyricsfile%"%haslyrics% -T "ALBUMARTIST=%albumartist%" -T "DISCNUMBER=%cdnumber%" -T "TOTALDISCS=%totalcds%" -T "TOTALTRACKS=%numtracks%" -T "COMMENT=%comment%" %source% -o %dest%

TOC of the extracted CD

Track | Start | Length | Start sector | End sector --------------------------------------------------------- 1 | 0:00.00 | 5:02.10 | 0 | 22659 2 | 5:02.10 | 11:36.52 | 22660 | 74911 3 | 16:38.62 | 6:32.05 | 74912 | 104316 4 | 23:10.67 | 6:08.13 | 104317 | 131929 5 | 29:19.05 | 5:33.12 | 131930 | 156916

Track 1

Filename C:\EAC\01 - Welcome People.wav

Pre-gap length 0:00:02.00

Peak level 94.8 % Extraction speed 2.2 X Track quality 99.9 % Test CRC 69B63744 Copy CRC 69B63744 Accurately ripped (confidence 2) [9DD27F6F] (AR v1) Copy OK

Track 2

Filename C:\EAC\02 - Mysterious Dream.wav

Peak level 99.9 % Extraction speed 3.1 X Track quality 100.0 % Test CRC 00C6D7E3 Copy CRC 00C6D7E3 Accurately ripped (confidence 2) [27733AE7] (AR v1) Copy OK

Track 3

Filename C:\EAC\03 - Oldeurope.wav

Peak level 98.6 % Extraction speed 3.2 X Track quality 99.9 % Test CRC CDA5CB27 Copy CRC CDA5CB27 Accurately ripped (confidence 2) [843549CB] (AR v1) Copy OK

Track 4

Filename C:\EAC\04 - Living With The Music.wav

Peak level 100.0 % Extraction speed 3.5 X Track quality 99.9 % Test CRC E92AF410 Copy CRC E92AF410 Accurately ripped (confidence 2) [C2354D7C] (AR v1) Copy OK

Track 5

Filename C:\EAC\05 - Sliding Through The Clouds Of Cusco.wav

Peak level 98.0 % Extraction speed 4.0 X Track quality 100.0 % Test CRC 96A01EE9 Copy CRC 96A01EE9 Accurately ripped (confidence 2) [8155CF58] (AR v1) Copy OK

All tracks accurately ripped

No errors occurred

End of status report

==== Log checksum 25458A3AEF5FAC3ABE4EB7E5D232A7D282992FC6A101F9F27EE1390862A0544E ====

------------------------------------------------------------

Exact Audio Copy V1.0 beta 3 from 29. August 2011

EAC extraction logfile from 29. October 2012, 18:23

Living Life / Mysterious Dream

Used drive : ATAPI iHAS324 Y Adapter: 4 ID: 0

Read mode : SecureUtilize accurate stream : YesDefeat audio cache : YesMake use of C2 pointers : No

Read offset correction : 48Overread into Lead-In and Lead-Out : NoFill up missing offset samples with silence : YesDelete leading and trailing silent blocks : NoNull samples used in CRC calculations : YesUsed interface : Native Win32 interface for Win NT & 2000Gap handling : Appended to previous track

Used output format : User Defined EncoderSelected bitrate : 896 kBit/sQuality : HighAdd ID3 tag : NoCommand line compressor : C:\Program Files\Exact Audio Copy\flac.exeAdditional command line options : -8 -V -T "ARTIST=%artist%" -T "TITLE=%title%" -T "ALBUM=%albumtitle%" -T "DATE=%year%" -T "TRACKNUMBER=%tracknr%" -T "GENRE=%genre%" -T "PERFORMER=%albuminterpret%" -T "COMPOSER=%composer%" %haslyrics%--tag-from-file=LYRICS="%lyricsfile%"%haslyrics% -T "ALBUMARTIST=%albumartist%" -T "DISCNUMBER=%cdnumber%" -T "TOTALDISCS=%totalcds%" -T "TOTALTRACKS=%numtracks%" -T "COMMENT=%comment%" %source% -o %dest%

TOC of the extracted CD

Track | Start | Length | Start sector | End sector --------------------------------------------------------- 1 | 0:00.00 | 5:02.10 | 0 | 22659 2 | 5:02.10 | 11:36.52 | 22660 | 74911 3 | 16:38.62 | 6:32.05 | 74912 | 104316 4 | 23:10.67 | 6:08.13 | 104317 | 131929 5 | 29:19.05 | 5:33.12 | 131930 | 156916

Track 1

Filename C:\EAC\01 - Welcome People.wav

Pre-gap length 0:00:02.00

Peak level 94.8 % Extraction speed 2.2 X Track quality 99.9 % Test CRC 69B63744 Copy CRC 69B63744 Accurately ripped (confidence 2) [9DD27F6F] (AR v1) Copy OK

Track 2

Filename C:\EAC\02 - Mysterious Dream.wav

Peak level 99.9 % Extraction speed 3.1 X Track quality 100.0 % Test CRC 00C6D7E3 Copy CRC 00C6D7E3 Accurately ripped (confidence 2) [27733AE7] (AR v1) Copy OK

Track 3

Filename C:\EAC\03 - Oldeurope.wav

Peak level 98.6 % Extraction speed 3.2 X Track quality 99.9 % Test CRC CDA5CB27 Copy CRC CDA5CB27 Accurately ripped (confidence 2) [843549CB] (AR v1) Copy OK

Track 4

Filename C:\EAC\04 - Living With The Music.wav

Peak level 100.0 % Extraction speed 3.5 X Track quality 99.9 % Test CRC E92AF410 Copy CRC E92AF410 Accurately ripped (confidence 2) [C2354D7C] (AR v1) Copy OK

Track 5

Filename C:\EAC\05 - Sliding Through The Clouds Of Cusco.wav

Peak level 98.0 % Extraction speed 4.0 X Track quality 100.0 % Test CRC 96A01EE9 Copy CRC 96A01EE9 Accurately ripped (confidence 2) [8155CF58] (AR v1) Copy OK

All tracks accurately ripped

No errors occurred

End of status report

==== Log checksum 25458A3AEF5FAC3ABE4EB7E5D232A7D282992FC6A101F9F27EE1390862A0544E ====
REM GENRE "Progressive Rock"REM DATE 1981REM DISCID 28082C05REM COMMENT "ExactAudioCopy v1.0b3"CATALOG 0000000000000PERFORMER "Living Life"TITLE "Mysterious Dream"FILE "01 - Welcome People.wav" WAVE TRACK 01 AUDIO TITLE "Welcome People" PERFORMER "Living Life" INDEX 01 00:00:00FILE "02 - Mysterious Dream.wav" WAVE TRACK 02 AUDIO TITLE "Mysterious Dream" PERFORMER "Living Life" INDEX 01 00:00:00FILE "03 - Oldeurope.wav" WAVE TRACK 03 AUDIO TITLE "Oldeurope" PERFORMER "Living Life" INDEX 01 00:00:00FILE "04 - Living With The Music.wav" WAVE TRACK 04 AUDIO TITLE "Living With The Music" PERFORMER "Living Life" INDEX 01 00:00:00FILE "05 - Sliding Through The Clouds Of Cusco.wav" WAVE TRACK 05 AUDIO TITLE "Sliding Through The Clouds Of Cusco" PERFORMER "Living Life" INDEX 01 00:00:00
[CUETools log; Date: 29.10.2012 16:43:16; Version: 2.1.2a][CTDB TOCID: BDPnRZ8TUmqLRYegIGeJ2bdmHVY-] found. [ CTDBID ] Status [c1d41668] (2/2) Accurately ripped[AccurateRip ID: 00077cf0-0022eb5d-28082c05] found.Track [ CRC ] Status 01 [9dd27f6f] (2/2) Accurately ripped 02 [27733ae7] (2/2) Accurately ripped 03 [843549cb] (2/2) Accurately ripped 04 [c2354d7c] (2/2) Accurately ripped 05 [8155cf58] (2/2) Accurately ripped

Track Peak [ CRC32 ] [W/O NULL] [ LOG ] -- 99,9 [7C1BAC9F] [F1C15A64] 01 94,8 [69B63744] [15100E08] CRC32 02 99,9 [00C6D7E3] [58154D1B] CRC32 03 98,6 [CDA5CB27] [AF949E25] CRC32 04 99,9 [E92AF410] [941E4FE8] CRC32 05 98,0 [96A01EE9] [FD494996] CRC32
-----------------------

DON'T MODIFY THIS FILE

-----------------------

PERFORMER: auCDtect Task Manager, ver. 1.5.1RC4 build 1.5.1.5Copyright (c) 2008-2010 y-soft. All rights reservedhttp://y-soft.org

ANALYZER: auCDtect: CD records authenticity detector, version 0.8.2Copyright (c) 2004 Oleg Berngardt. All rights reserved.Copyright (c) 2004 Alexander Djourik. All rights reserved.

FILE: 04 - Living With The Music.flac Size: 35503360 Hash: B86A75935E5A5CCCFF90BF8B24D3A318 Accuracy: -m0 Conclusion: CDDA 100% Signature: 1357D8E8CA78EF422D41091435DD8952C8620314FILE: 03 - Oldeurope.flac Size: 31922162 Hash: 5875FCA4C446A3A42AD581A4A8BC02B1 Accuracy: -m0 Conclusion: CDDA 100% Signature: 23B0071EB04692C1F6E7B47EBCCC8E8E95CD3E00FILE: 02 - Mysterious Dream.flac Size: 64768631 Hash: 6C2168214937949088B76024C5C3B497 Accuracy: -m0 Conclusion: CDDA 100% Signature: 5AA0CB18B18781C5BEE0057D3448B82A0BA0ED07FILE: 01 - Welcome People.flac Size: 30132494 Hash: E6A89176BA09E48B78560ADFFD1122F3 Accuracy: -m0 Conclusion: CDDA 100% Signature: E7EE64DC60E45D2B2EB0F624621CC8A0EFED8F8DFILE: 05 - Sliding Through The Clouds Of Cusco.flac Size: 32523324 Hash: 87332756E43B588E389A7415C0C89E6C Accuracy: -m0 Conclusion: CDDA 100% Signature: 1D9CAD981E64F31888AD763B59DB720813C8308F
Drummer Johnny Betti left Circus 2000 in 1972, having played on their debut album, following some contrasts with the rest of the band. He had a jazz background, having even spent some years playing with foreign jazz musicians touring Europe, so he briefly returned to his jazz roots before leaving in Afghanistan for a year.
He reappeared in 1975 with his new band Living Life, also based in Turin and recording for his own newly created Shirak label. The former Circus 2000 guitarist "Spooky" Quartarone was also involved in the Living Life original line-up.

Their debut album, Let: from experience to experience, the first LP release by Shirak, is a fragmented blend of jazz, rock and ethnic music, mostly instrumental with just an English-sung vocal track. No musician names are present on the sleeve, though seven of them are pictured, and all the tracks are penned by an N.Tibet (that appears to be Betti under a fake name).

The second one, Mysterious dream, came after a six years break; the group had a new line-up with Betti and bassist Savarro as the only remaining founder members, and some help from original keyboardist Piercarlo Bettini (now known as Swami Zekuta, he had been with I Ragazzi del Sole in the 60's), replaced by Aldo Valente during the recording session.

The five-track LP was totally composed by Johnny Betti and in a more original style than their debut, again with jazz-rock influences but more keyboards-based (no less than four keyboard player are involved) and with good vocal parts like in the 11 minute long title-track, Mysterious dream.

The group disbanded again due to the lack of attention, like many other acts on the small Shirak label (some good folk bands like La Lionetta).
http://www.italianprog.com/a_livinglife.htm
Un disco, e un gruppo, da recuperare. E' la seconda prova discografica per questa band di Torino, dopo l'esordio di ben sei anni prima.
Qui il jazz-rock originale si mescola fecondamente con suggestioni di raffinato space rock, con atmosfere oniriche davvero intriganti, specie nella lunga title track. Si segnalano i testi in inglese, ben inseriti nel contesto strumentale, e picchi chitarristici di buon livello, assieme al flauto e all'uso intensivo di tastiere elettroniche. Dei cinque brani, almeno i primi quattro sono eccellenti. Non un capolavoro, ma un episodio molto interessante del prog italiano classico ormai agli sgoccioli.
http://rateyourmusic.com/release/album/living_life/mysterious_dream/
Bass Guitar [Rikenbacher], Voice – Roberto Savarro
Drums [Sonor Signature], Synthesizer [Jamaha Cs 50], Vocoder [Korg], Electric Piano [Fender], Voice, Effects, Percussion, Music By, Arranged By, Producer – Johnny Betti
Electric Guitar [Hb/di Marzio Elaborata], Acoustic Guitar [Aria] – Daniele Pintaldi
Engineer – Mauro Murittu
Flute – Flavio Capello
Oboe – Gianni Cinti
Photography By, Graphics – Massimo Olivero
Synthesizer [Arp 2600 Programming] – Gianni Bianco



Трекер:  [ 11-Ноя-2012 14:27 ]

  

Скачать .torrent

Размер .torrent файла 16 KB


Размер: 188 MB
Хэш (hash) релиза: 72890165a4b340b7ad10701c2b319f58d1df2fde

Еще никто не оставлял запись к записи скачать торрент Living Life - Mysterious Dream - 1981 . Будь первым!

!Обратная связь