Скачать через торрент музыку Camera - Radiate! - 2012, FLAC бесплатно без регистрации torrent

Если у вас наблюдаются проблемы со скриншотами, переходом по ссылками, скачиванием торрентов - проблемы в блокировщике рекламы AdBlock. #хорошегоДня!


Статистика раздачи
Размер:  288 MB   |    Зарегистрирован:  4 года 11 месяцев   |    .torrent скачан:  5 раз   |   
Раздают:  1  
   
Загрузка...
 
Автор Сообщение

Galfimbul

avatar Galfimbul


Camera / Radiate!

Жанр: Neo Krautrock
Страна-производитель диска: Germany
Год издания: 2012
Издатель (лейбл): Bureau B
Номер по каталогу: BB116
Страна: Germany
Аудиокодек: FLAC (*.flac)
Тип рипа: tracks+.cue
Битрейт аудио: lossless
Продолжительность: 52:24
Источник: what.cd
Наличие сканов в содержимом раздачи: нет

Треклист:

01. E - Go [6:55]
02. Villon [4:03]
03. Ausland [5:52]
04. Lynch [10:58]
05. Utopia Is [6:08]
06. Rfid [7:24]
07. Soldat [4:56]
08. Morgen [6:07]
Exact Audio Copy V1.0 beta 3 from 29. August 2011

EAC extraction logfile from 14. September 2012, 15:21

Camera / Radiate!

Used drive : SONY DVD RW DRU-820A Adapter: 1 ID: 0

Read mode : SecureUtilize accurate stream : YesDefeat audio cache : YesMake use of C2 pointers : No

Read offset correction : 102Overread into Lead-In and Lead-Out : NoFill up missing offset samples with silence : YesDelete leading and trailing silent blocks : NoNull samples used in CRC calculations : YesUsed interface : Native Win32 interface for Win NT & 2000Gap handling : Appended to previous track

Used output format : User Defined EncoderSelected bitrate : 1024 kBit/sQuality : HighAdd ID3 tag : NoCommand line compressor : C:\Program Files (x86)\Exact Audio Copy\Flac\flac.exeAdditional command line options : -8 -V -T "ARTIST=%artist%" -T "TITLE=%title%" -T "ALBUM=%albumtitle%" -T "DATE=%year%" -T "TRACKNUMBER=%tracknr%" -T "GENRE=%genre%" -T "PERFORMER=%albuminterpret%" -T "COMPOSER=%composer%" %haslyrics%--tag-from-file=LYRICS="%lyricsfile%"%haslyrics% -T "ALBUMARTIST=%albumartist%" -T "ALBUM ARTIST=%albumartist%" -T "DISCNUMBER=%cdnumber%" -T "TOTALDISCS=%totalcds%" -T "TOTALTRACKS=%numtracks%" -T "COMMENT=EAC V1.0 beta 2, Secure Mode, Test & Copy, AccurateRip, FLAC -8" %source% -o %dest%

TOC of the extracted CD

Track | Start | Length | Start sector | End sector --------------------------------------------------------- 1 | 0:00.00 | 6:54.60 | 0 | 31109 2 | 6:54.60 | 4:02.66 | 31110 | 49325 3 | 10:57.51 | 5:52.27 | 49326 | 75752 4 | 16:50.03 | 10:57.60 | 75753 | 125087 5 | 27:47.63 | 6:08.37 | 125088 | 152724 6 | 33:56.25 | 7:24.09 | 152725 | 186033 7 | 41:20.34 | 4:56.37 | 186034 | 208270 8 | 46:16.71 | 6:06.60 | 208271 | 235780

Track 1

Filename K:\EAC Rips\Camera - Radiate! (2012) [FLAC]\01 - E-Go.wav

Pre-gap length 0:00:02.00

Peak level 98.8 % Extraction speed 4.6 X Track quality 100.0 % Test CRC AE3A1827 Copy CRC AE3A1827 Track not present in AccurateRip database Copy OK

Track 2

Filename K:\EAC Rips\Camera - Radiate! (2012) [FLAC]\02 - Villon.wav

Peak level 98.6 % Extraction speed 5.3 X Track quality 100.0 % Test CRC 2B2CE8AE Copy CRC 2B2CE8AE Track not present in AccurateRip database Copy OK

Track 3

Filename K:\EAC Rips\Camera - Radiate! (2012) [FLAC]\03 - Ausland.wav

Peak level 98.7 % Extraction speed 6.0 X Track quality 100.0 % Test CRC 57BBC446 Copy CRC 57BBC446 Track not present in AccurateRip database Copy OK

Track 4

Filename K:\EAC Rips\Camera - Radiate! (2012) [FLAC]\04 - Lynch.wav

Peak level 98.4 % Extraction speed 7.0 X Track quality 100.0 % Test CRC 3871B388 Copy CRC 3871B388 Track not present in AccurateRip database Copy OK

Track 5

Filename K:\EAC Rips\Camera - Radiate! (2012) [FLAC]\05 - Utopia Is.wav

Peak level 97.8 % Extraction speed 5.3 X Track quality 99.9 % Test CRC 8176D0E0 Copy CRC 8176D0E0 Track not present in AccurateRip database Copy OK

Track 6

Filename K:\EAC Rips\Camera - Radiate! (2012) [FLAC]\06 - RFID.wav

Peak level 98.0 % Extraction speed 6.9 X Track quality 100.0 % Test CRC F5614E56 Copy CRC F5614E56 Track not present in AccurateRip database Copy OK

Track 7

Filename K:\EAC Rips\Camera - Radiate! (2012) [FLAC]\07 - Soldat.wav

Peak level 98.0 % Extraction speed 4.7 X Track quality 99.9 % Test CRC 26B699EE Copy CRC 26B699EE Track not present in AccurateRip database Copy OK

Track 8

Filename K:\EAC Rips\Camera - Radiate! (2012) [FLAC]\08 - Morgen.wav

Peak level 98.8 % Extraction speed 6.4 X Track quality 100.0 % Test CRC 73AB177E Copy CRC 73AB177E Track not present in AccurateRip database Copy OK

None of the tracks are present in the AccurateRip database

No errors occurred

End of status report

---- CUETools DB Plugin V2.1.3

[CTDB TOCID: ZOwEUaevEayT_xXumXMF.ahHl.g-] found, Submit result: ZOwEUaevEayT_xXumXMF.ahHl.g- has been confirmed[11b0a725] (4/4) Accurately ripped

==== Log checksum FA1176E353D4B76E00138BD1EDDF103882FA708C94E178F737EDC138F3057F0E ====
REM GENRE "Rock"REM DATE 2012REM DISCID 700C4708REM COMMENT "ExactAudioCopy v1.0b3"CATALOG 4047179671026PERFORMER "Camera"TITLE "Radiate!"FILE "01 - E-Go.wav" WAVE TRACK 01 AUDIO TITLE "E-Go" PERFORMER "Camera" ISRC DELI51200863 INDEX 01 00:00:00FILE "02 - Villon.wav" WAVE TRACK 02 AUDIO TITLE "Villon" PERFORMER "Camera" ISRC DELI51200864 INDEX 01 00:00:00FILE "03 - Ausland.wav" WAVE TRACK 03 AUDIO TITLE "Ausland" PERFORMER "Camera" ISRC DELI51200865 INDEX 01 00:00:00FILE "04 - Lynch.wav" WAVE TRACK 04 AUDIO TITLE "Lynch" PERFORMER "Camera" ISRC DELI51200866 INDEX 01 00:00:00FILE "05 - Utopia Is.wav" WAVE TRACK 05 AUDIO TITLE "Utopia Is" PERFORMER "Camera" ISRC DELI51200867 INDEX 01 00:00:00FILE "06 - RFID.wav" WAVE TRACK 06 AUDIO TITLE "RFID" PERFORMER "Camera" ISRC DELI51200868 INDEX 01 00:00:00FILE "07 - Soldat.wav" WAVE TRACK 07 AUDIO TITLE "Soldat" PERFORMER "Camera" ISRC DELI51200869 INDEX 01 00:00:00FILE "08 - Morgen.wav" WAVE TRACK 08 AUDIO TITLE "Morgen" PERFORMER "Camera" ISRC DELI51200870 INDEX 01 00:00:00
The world of German electronic music can seem like a very backwards looking one. If the English music scene appears to practically worship at the altar of all things 1977, with endless documentaries explaining to those of us aged under 40 about how boring the mid 70s were in London and why punk rock changed history to save us from dismally anodyne disco pop, then anyone taking a new found interest in German music might find themselves equally confronted with the possibility that any innovation began and ended in Kraftwerks Kling Klang studios, and with Giorgio Moroder manipulating his Robotniks (and Donna Summer) from a windowless studio hidden under Banhof Zoo. This is, of course, untrue, but when a new band such as Camera are seen to make such obvious tribute towards bands of the German 1970s such as Cluster, Neu! and Harmonia, then it can seem as if they are purposefully making music specifically designed to reach an audience outwith their own immediate sphere, that of the elitist Krautrock buffs who will assiduously deconstruct their music down to its last waveform while deciding exactly which track sounds most like LA Dussseldorf. 80s musicians such as Andreas Doraus, Front 242 and Der Plan are rarely name checked, while Einsturzende Neubaten seem to belong to another tradition entirely.

But the rules are different in German music, and individuals such as Moebius, Ralph Hutter, Klaus Schulze and Edgar Froese enjoy reputations that aren’t exactly those of rock musicians in the English speaking world. Their work and that of many of their 60s and 70s contemporaries is given an artistic status which belongs more readily in galleries and cinemas than on the gig circuit. Camera are obviously very aware of this (they’ve already performed alongside Moebius and Neu!’s Michael Rother), and while in one sense they are viewed as a band able to continue the work of some of the now elder statesmen of the first wave of German electronic composition, they also know that if they’re going to do that succesfully then they can’t get too reverential or clinical in their approach to this. So, utilising live percussion and treating the studio as they would any other gig opportunity, Camera bring a defined energy and a range of material that encompasses full on post rock, hard edged synth dynamics, longer and more developed pieces, and while for the most part they remain within the framework laid down by those 70s electro pioneers, their combined talents and enthusiasm make ‘Radiate!’ a near compulsive listen.

Camera know that timing and a tactile awareness of the actual dynamics of their instrumentation are what can push their music beyond its usual confines. The live drumming brings in an added depth to the abrasive synth lines and even in their more reflective moments, on longer tracks such as “Lynch” and “RFID” there’s a definable tension in the background, with Camera prepared at any moment to shift their music into a frenzy that can occasionally recall the monomania of Atari Teenage Riot. Camera avoid going too far down Alec Empire’s Hardcore route (I saw one of his live shows, and it was certainly memorable), but they also disregard entirely the studied urbanity of Tarwater : next to Radiate!, Tarwater’s 2011 Inside The Ships is practically a jazz album.
What gives Radiate! its most interesting qualities is that it’s the sound of a band testing their own abilities. Most of Camera’s live shows so far have been the spontaneous open air performances that they’ve established their reputation with, and this approach is carried over into their recorded work, and it’s possible to hear these committedly outdoor musicians finding the studio actually limiting their music and playing. I could oversimplify this review by saying that what Camera really sound like is Neu! with Scorpions Michael Schenker on guitar, but that wouldn’t go even halfway towards describing what kind of band they really are, and would only make me sound like the kind of non-German Krautrock bore who would probably disregard Camera entirely until they’ve worked with Brian Eno on their third album or something. There’s far more to Radiate! than a mere recycling of Camera’s influences, and they and their music deserve a more objective hearing, one that puts aside the preconceptions that just about everyone in the English speaking world falls back on when the words electronica and German are mentioned in the same sentence.


Трекер:  [ 11-Ноя-2012 14:27 ]

  

Скачать .torrent

Размер .torrent файла 12 KB


Размер: 288 MB
Хэш (hash) релиза: 692ab7610664e3c3526fb1954df8ca6149b94ddc

Еще никто не оставлял запись к записи скачать торрент Camera - Radiate! - 2012, FLAC . Будь первым!

!Обратная связь