Скачать через торрент музыку Peter Gabriel - бесплатно без регистрации torrent

Если у вас наблюдаются проблемы со скриншотами, переходом по ссылками, скачиванием торрентов - проблемы в блокировщике рекламы AdBlock. #хорошегоДня!


Статистика раздачи
Размер:  1.34 GB   |    Зарегистрирован:  4 года 9 месяцев   |    .torrent скачан:  33 раза   |   
Раздают:  1  
   
Загрузка...
 
Автор Сообщение

_N_

avatar _N_


Peter Gabriel / (25th Anniversary Edition; Remastered; Special Edition) 4CD's

Жанр: Progressive Rock
Страна-производитель диска: UK
Год издания: 2012
Издатель (лейбл): Real World Productions
Страна: UK
Аудиокодек: FLAC (*.flac)
Тип рипа: tracks+.cue
Битрейт аудио: lossless
Продолжительность: 03:31:44
Источник (релизер): YHWilco (what.cd)
Наличие сканов в содержимом раздачи: нет
1. Red Rain (2012 - Remaster) 05:39
2. Sledgehammer (2012 - Remaster) 05:13
3. Don't Give Up (2012 - Remaster) 06:34
4. That Voice Again (2012 - Remaster) 04:49
5. Mercy Street (2012 - Remaster) 06:17
6. Big Time (2012 - Remaster) 04:28
7. We Do What We're Told (Milgram's 37) (2012 - Remaster) 03:22
8. This Is The Picture (Excellent Birds) [2012 - Remaster] 04:20
9. In Your Eyes (2012 - Remaster) 05:26
1. This Is The Picture (Live) [2012 - Remaster](Athens Live 1987 - CD) 05:56
2. San Jacinto (Live) [2012 - Remaster](Athens Live 1987 - CD) 07:26
3. Shock The Monkey (Live) [2012 - Remaster](Athens Live 1987 - CD) 06:44
4. Family Snapshot (Live) [2012 - Remaster](Athens Live 1987 - CD) 04:36
5. Intruder (Live) [2012 - Remaster](Athens Live 1987 - CD) 05:26
6. Games Without Frontiers (Live) [2012 - Remaster](Athens Live 1987 - CD) 05:29
7. No Self Control (Live) [2012 - Remaster](Athens Live 1987 - CD) 06:15
8. Mercy Street (Live) [2012 - Remaster](Athens Live 1987 - CD) 09:15
9. The Family And The Fishing Net (Live) [2012 - Remaster](Athens Live 1987 - CD) 07:06
1. Don't Give Up (Live) [2012 - Remaster](Athens Live 1987 - CD) 08:15
2. Solsbury Hill (Live) [2012 - Remaster](Athens Live 1987 - CD) 05:10
3. Lay Your Hands On Me (Live) [2012 - Remaster](Athens Live 1987 - CD) 06:14
4. Sledgehammer (Live) [2012 - Remaster](Athens Live 1987 - CD) 05:06
5. Here Comes The Flood (Live) [2012 - Remaster](Athens Live 1987 - CD) 02:48
6. In Your Eyes (Live) [2012 - Remaster](Athens Live 1987 - CD) 10:38
7. Biko (Live) [2012 - Remaster](Athens Live 1987 - CD) 09:36
1. Red Rain (DNA -CD)
2. Sledgehammer (DNA-CD)
3. Don't Give Up (DNA-CD)
4. That Voice Again (DNA-CD)
5. Mercy Street (DNA-CD)
6. Big Time (DNA-CD)
7. We Do What We're Told (Milgram's 37) (DNA-CD]
8. This Is The Picture (Excellent Birds) (DNA-CD)
9. In Your Eyes (DNA-CD)
Exact Audio Copy V1.0 beta 3 from 29. August 2011

EAC extraction logfile from 24. October 2012, 22:30

Peter Gabriel / So(Original Album Remastered)

Used drive : MATSHITABD-CMB UJ141EF Adapter: 0 ID: 1

Read mode : Secure
Utilize accurate stream : Yes
Defeat audio cache : Yes
Make use of C2 pointers : No

Read offset correction : 103
Overread into Lead-In and Lead-Out : No
Fill up missing offset samples with silence : Yes
Delete leading and trailing silent blocks : No
Null samples used in CRC calculations : Yes
Used interface : Native Win32 interface for Win NT & 2000
Gap handling : Appended to previous track

Used output format : User Defined Encoder
Selected bitrate : 128 kBit/s
Quality : High
Add ID3 tag : No
Command line compressor : C:\Program Files (x86)\Exact Audio Copy\Flac\flac.exe
Additional command line options : -8 -V -T "ARTIST=%artist%" -T "TITLE=%title%" -T "ALBUM=%albumtitle%" -T "DATE=%year%" -T "TRACKNUMBER=%tracknr%" -T "GENRE=%genre%" -T "PERFORMER=%albuminterpret%" -T "COMPOSER=%composer%" %haslyrics%--tag-from-file=LYRICS="%lyricsfile%"%haslyrics% -T "ALBUMARTIST=%albumartist%" -T "DISCNUMBER=%cdnumber%" -T "TOTALDISCS=%totalcds%" -T "TOTALTRACKS=%numtracks%" -T "COMMENT=%comment%" %source% -o %dest%

TOC of the extracted CD

Track | Start | Length | Start sector | End sector
---------------------------------------------------------
1 | 0:00.00 | 5:40.63 | 0 | 25562
2 | 5:40.63 | 5:13.40 | 25563 | 49077
3 | 10:54.28 | 6:34.62 | 49078 | 78689
4 | 17:29.15 | 4:49.15 | 78690 | 100379
5 | 22:18.30 | 6:17.69 | 100380 | 128723
6 | 28:36.24 | 4:27.74 | 128724 | 148822
7 | 33:04.23 | 3:22.05 | 148823 | 163977
8 | 36:26.28 | 4:20.48 | 163978 | 183525
9 | 40:47.01 | 5:27.71 | 183526 | 208121

Track 1

Filename C:\eac\Peter Gabriel-So(Limited Edition 4cd Box Set)\01 - Red Rain.wav

Pre-gap length 0:00:02.00

Peak level 100.0 %
Extraction speed 2.7 X
Track quality 100.0 %
Test CRC 8F969169
Copy CRC 8F969169
Track not present in AccurateRip database
Copy OK

Track 2

Filename C:\eac\Peter Gabriel-So(Limited Edition 4cd Box Set)\02 - Sledgehammer.wav

Pre-gap length 0:00:02.46

Peak level 100.0 %
Extraction speed 3.1 X
Track quality 100.0 %
Test CRC 13DFCF5A
Copy CRC 13DFCF5A
Track not present in AccurateRip database
Copy OK

Track 3

Filename C:\eac\Peter Gabriel-So(Limited Edition 4cd Box Set)\03 - Don't Give Up.wav

Pre-gap length 0:00:00.68

Peak level 100.0 %
Extraction speed 3.4 X
Track quality 100.0 %
Test CRC C6D2AD67
Copy CRC C6D2AD67
Track not present in AccurateRip database
Copy OK

Track 4

Filename C:\eac\Peter Gabriel-So(Limited Edition 4cd Box Set)\04 - That Voice Again.wav

Pre-gap length 0:00:02.73

Peak level 100.0 %
Extraction speed 3.6 X
Track quality 100.0 %
Test CRC C72BCE2A
Copy CRC C72BCE2A
Track not present in AccurateRip database
Copy OK

Track 5

Filename C:\eac\Peter Gabriel-So(Limited Edition 4cd Box Set)\05 - Mercy Street.wav

Pre-gap length 0:00:00.08

Peak level 100.0 %
Extraction speed 4.0 X
Track quality 100.0 %
Test CRC DC974575
Copy CRC DC974575
Track not present in AccurateRip database
Copy OK

Track 6

Filename C:\eac\Peter Gabriel-So(Limited Edition 4cd Box Set)\06 - Big Time.wav

Peak level 100.0 %
Extraction speed 3.3 X
Track quality 99.9 %
Test CRC 3C44B47E
Copy CRC 3C44B47E
Track not present in AccurateRip database
Copy OK

Track 7

Filename C:\eac\Peter Gabriel-So(Limited Edition 4cd Box Set)\07 - We Do What We're Told(Milgram's 37).wav

Pre-gap length 0:00:02.57

Peak level 100.0 %
Extraction speed 4.1 X
Track quality 100.0 %
Test CRC 0725EBD3
Copy CRC 0725EBD3
Track not present in AccurateRip database
Copy OK

Track 8

Filename C:\eac\Peter Gabriel-So(Limited Edition 4cd Box Set)\08 - This Is The Picture(Excellent Birds).wav

Pre-gap length 0:00:02.97

Peak level 100.0 %
Extraction speed 4.3 X
Track quality 100.0 %
Test CRC 6956E38C
Copy CRC 6956E38C
Track not present in AccurateRip database
Copy OK

Track 9

Filename C:\eac\Peter Gabriel-So(Limited Edition 4cd Box Set)\09 - In Your Eyes.wav

Peak level 100.0 %
Extraction speed 4.6 X
Track quality 100.0 %
Test CRC 7C2A6EEE
Copy CRC 7C2A6EEE
Track not present in AccurateRip database
Copy OK

None of the tracks are present in the AccurateRip database

No errors occurred

End of status report

---- CUETools DB Plugin V2.1.3

[CTDB TOCID: V9EeI1JA9JJ2Hc8kHtNf7VaSReI-] found, Submit result: V9EeI1JA9JJ2Hc8kHtNf7VaSReI- has been confirmed
[ad6ad07a] (11/11) Accurately ripped

==== Log checksum 1641ADE0A1AD2AF1C2583707425BBDFFA2B63B9104FC187272C592B40C05C899 ====
Exact Audio Copy V1.0 beta 3 from 29. August 2011

EAC extraction logfile from 24. October 2012, 23:51

Peter Gabriel / Live In Athens 1987(Disc 1)

Used drive : MATSHITABD-CMB UJ141EF Adapter: 0 ID: 1

Read mode : Secure
Utilize accurate stream : Yes
Defeat audio cache : Yes
Make use of C2 pointers : No

Read offset correction : 103
Overread into Lead-In and Lead-Out : No
Fill up missing offset samples with silence : Yes
Delete leading and trailing silent blocks : No
Null samples used in CRC calculations : Yes
Used interface : Native Win32 interface for Win NT & 2000
Gap handling : Appended to previous track

Used output format : User Defined Encoder
Selected bitrate : 128 kBit/s
Quality : High
Add ID3 tag : No
Command line compressor : C:\Program Files (x86)\Exact Audio Copy\Flac\flac.exe
Additional command line options : -8 -V -T "ARTIST=%artist%" -T "TITLE=%title%" -T "ALBUM=%albumtitle%" -T "DATE=%year%" -T "TRACKNUMBER=%tracknr%" -T "GENRE=%genre%" -T "PERFORMER=%albuminterpret%" -T "COMPOSER=%composer%" %haslyrics%--tag-from-file=LYRICS="%lyricsfile%"%haslyrics% -T "ALBUMARTIST=%albumartist%" -T "DISCNUMBER=%cdnumber%" -T "TOTALDISCS=%totalcds%" -T "TOTALTRACKS=%numtracks%" -T "COMMENT=%comment%" %source% -o %dest%

TOC of the extracted CD

Track | Start | Length | Start sector | End sector
---------------------------------------------------------
1 | 0:00.00 | 5:57.13 | 0 | 26787
2 | 5:57.13 | 7:26.46 | 26788 | 60283
3 | 13:23.59 | 6:44.36 | 60284 | 90619
4 | 20:08.20 | 4:35.73 | 90620 | 111317
5 | 24:44.18 | 5:26.01 | 111318 | 135768
6 | 30:10.19 | 5:29.19 | 135769 | 160462
7 | 35:39.38 | 6:15.39 | 160463 | 188626
8 | 41:55.02 | 9:15.18 | 188627 | 230269
9 | 51:10.20 | 7:08.40 | 230270 | 262409

Track 1

Filename C:\eac\Peter Gabriel-So(Limited Edition 4cd Box Set)\Live In Athens 1987(Disc 1)\01 - This Is The Picture(Excellent Birds).wav

Pre-gap length 0:00:02.00

Peak level 100.0 %
Extraction speed 2.7 X
Track quality 100.0 %
Test CRC 7FFCAC51
Copy CRC 7FFCAC51
Track not present in AccurateRip database
Copy OK

Track 2

Filename C:\eac\Peter Gabriel-So(Limited Edition 4cd Box Set)\Live In Athens 1987(Disc 1)\02 - San Jacinto.wav

Peak level 100.0 %
Extraction speed 3.2 X
Track quality 100.0 %
Test CRC 28173D41
Copy CRC 28173D41
Track not present in AccurateRip database
Copy OK

Track 3

Filename C:\eac\Peter Gabriel-So(Limited Edition 4cd Box Set)\Live In Athens 1987(Disc 1)\03 - Shock The Monkey.wav

Peak level 100.0 %
Extraction speed 3.6 X
Track quality 100.0 %
Test CRC BEC28E06
Copy CRC BEC28E06
Track not present in AccurateRip database
Copy OK

Track 4

Filename C:\eac\Peter Gabriel-So(Limited Edition 4cd Box Set)\Live In Athens 1987(Disc 1)\04 - Family Snapshot.wav

Peak level 100.0 %
Extraction speed 3.7 X
Track quality 100.0 %
Test CRC 5BF258A0
Copy CRC 5BF258A0
Track not present in AccurateRip database
Copy OK

Track 5

Filename C:\eac\Peter Gabriel-So(Limited Edition 4cd Box Set)\Live In Athens 1987(Disc 1)\05 - Intruder.wav

Peak level 100.0 %
Extraction speed 3.2 X
Track quality 99.9 %
Test CRC 9B0F5549
Copy CRC 9B0F5549
Track not present in AccurateRip database
Copy OK

Track 6

Filename C:\eac\Peter Gabriel-So(Limited Edition 4cd Box Set)\Live In Athens 1987(Disc 1)\06 - Games Without Frontiers.wav

Peak level 100.0 %
Extraction speed 4.3 X
Track quality 100.0 %
Test CRC 99EF687B
Copy CRC 99EF687B
Track not present in AccurateRip database
Copy OK

Track 7

Filename C:\eac\Peter Gabriel-So(Limited Edition 4cd Box Set)\Live In Athens 1987(Disc 1)\07 - No Self Control.wav

Peak level 100.0 %
Extraction speed 4.5 X
Track quality 100.0 %
Test CRC FC76EE2B
Copy CRC FC76EE2B
Track not present in AccurateRip database
Copy OK

Track 8

Filename C:\eac\Peter Gabriel-So(Limited Edition 4cd Box Set)\Live In Athens 1987(Disc 1)\08 - Mercy Street.wav

Peak level 100.0 %
Extraction speed 5.0 X
Track quality 100.0 %
Test CRC EB610BC9
Copy CRC EB610BC9
Track not present in AccurateRip database
Copy OK

Track 9

Filename C:\eac\Peter Gabriel-So(Limited Edition 4cd Box Set)\Live In Athens 1987(Disc 1)\09 - The Family And The Fishing Net.wav

Peak level 100.0 %
Extraction speed 5.2 X
Track quality 100.0 %
Test CRC 15D21226
Copy CRC 15D21226
Track not present in AccurateRip database
Copy OK

None of the tracks are present in the AccurateRip database

No errors occurred

End of status report

---- CUETools DB Plugin V2.1.3

[CTDB TOCID: sEL4FENZNKOedCkzizjcAweFWBw-] found, Submit result: sEL4FENZNKOedCkzizjcAweFWBw- has been confirmed
[a755753e] (9/9) Accurately ripped

==== Log checksum D052AE5B99B4EAF1EED5C4D55258AA6B4A2177AA2AC40BD6B988AC74A2E07A5E ====
Exact Audio Copy V1.0 beta 3 from 29. August 2011

EAC extraction logfile from 25. October 2012, 0:36

Peter Gabriel / Live In Athens 1987(Disc 2)

Used drive : MATSHITABD-CMB UJ141EF Adapter: 0 ID: 1

Read mode : Secure
Utilize accurate stream : Yes
Defeat audio cache : Yes
Make use of C2 pointers : No

Read offset correction : 103
Overread into Lead-In and Lead-Out : No
Fill up missing offset samples with silence : Yes
Delete leading and trailing silent blocks : No
Null samples used in CRC calculations : Yes
Used interface : Native Win32 interface for Win NT & 2000
Gap handling : Appended to previous track

Used output format : User Defined Encoder
Selected bitrate : 128 kBit/s
Quality : High
Add ID3 tag : No
Command line compressor : C:\Program Files (x86)\Exact Audio Copy\Flac\flac.exe
Additional command line options : -8 -V -T "ARTIST=%artist%" -T "TITLE=%title%" -T "ALBUM=%albumtitle%" -T "DATE=%year%" -T "TRACKNUMBER=%tracknr%" -T "GENRE=%genre%" -T "PERFORMER=%albuminterpret%" -T "COMPOSER=%composer%" %haslyrics%--tag-from-file=LYRICS="%lyricsfile%"%haslyrics% -T "ALBUMARTIST=%albumartist%" -T "DISCNUMBER=%cdnumber%" -T "TOTALDISCS=%totalcds%" -T "TOTALTRACKS=%numtracks%" -T "COMMENT=%comment%" %source% -o %dest%

TOC of the extracted CD

Track | Start | Length | Start sector | End sector
---------------------------------------------------------
1 | 0:00.00 | 8:16.59 | 0 | 37258
2 | 8:16.59 | 5:10.53 | 37259 | 60561
3 | 13:27.37 | 6:14.38 | 60562 | 88649
4 | 19:42.00 | 5:06.59 | 88650 | 111658
5 | 24:48.59 | 2:47.72 | 111659 | 124255
6 | 27:36.56 | 10:38.17 | 124256 | 172122
7 | 38:14.73 | 9:38.28 | 172123 | 215500

Track 1

Filename C:\eac\Peter Gabriel-So(Limited Edition 4cd Box Set)\Live In Athens 1987(Disc 2)\01 - Don't Give Up.wav

Pre-gap length 0:00:02.00

Peak level 100.0 %
Extraction speed 2.9 X
Track quality 100.0 %
Test CRC 04B9D4D3
Copy CRC 04B9D4D3
Track not present in AccurateRip database
Copy OK

Track 2

Filename C:\eac\Peter Gabriel-So(Limited Edition 4cd Box Set)\Live In Athens 1987(Disc 2)\02 - Solsbury Hill.wav

Peak level 100.0 %
Extraction speed 3.2 X
Track quality 100.0 %
Test CRC 86F21D56
Copy CRC 86F21D56
Track not present in AccurateRip database
Copy OK

Track 3

Filename C:\eac\Peter Gabriel-So(Limited Edition 4cd Box Set)\Live In Athens 1987(Disc 2)\03 - Lay Your Hands On Me.wav

Peak level 100.0 %
Extraction speed 2.9 X
Track quality 99.9 %
Test CRC 9EB5D805
Copy CRC 9EB5D805
Track not present in AccurateRip database
Copy OK

Track 4

Filename C:\eac\Peter Gabriel-So(Limited Edition 4cd Box Set)\Live In Athens 1987(Disc 2)\04 - Sledgehammer.wav

Peak level 100.0 %
Extraction speed 3.7 X
Track quality 100.0 %
Test CRC CBDCF360
Copy CRC CBDCF360
Track not present in AccurateRip database
Copy OK

Track 5

Filename C:\eac\Peter Gabriel-So(Limited Edition 4cd Box Set)\Live In Athens 1987(Disc 2)\05 - Here Comes The Flood.wav

Peak level 97.9 %
Extraction speed 2.5 X
Track quality 99.9 %
Test CRC 646E4567
Copy CRC 646E4567
Track not present in AccurateRip database
Copy OK

Track 6

Filename C:\eac\Peter Gabriel-So(Limited Edition 4cd Box Set)\Live In Athens 1987(Disc 2)\06 - In Your Eyes.wav

Peak level 100.0 %
Extraction speed 4.5 X
Track quality 100.0 %
Test CRC 13B2A890
Copy CRC 13B2A890
Track not present in AccurateRip database
Copy OK

Track 7

Filename C:\eac\Peter Gabriel-So(Limited Edition 4cd Box Set)\Live In Athens 1987(Disc 2)\07 - Biko.wav

Peak level 100.0 %
Extraction speed 4.8 X
Track quality 100.0 %
Test CRC F90D348C
Copy CRC F90D348C
Track not present in AccurateRip database
Copy OK

None of the tracks are present in the AccurateRip database

No errors occurred

End of status report

---- CUETools DB Plugin V2.1.3

[CTDB TOCID: b5qYHe9Bz.fXJwgArRwzCHk69fc-] found, Submit result: b5qYHe9Bz.fXJwgArRwzCHk69fc- has been confirmed
[2e4d04ae] (9/9) Accurately ripped

==== Log checksum 675BBC9AA825C4EAF7A55D5374EA8378EA85DA7C28961F68456DC31D3A7EEE7E ====
Exact Audio Copy V1.0 beta 3 from 29. August 2011

EAC extraction logfile from 24. October 2012, 23:12

Peter Gabriel / So DNA

Used drive : MATSHITABD-CMB UJ141EF Adapter: 0 ID: 1

Read mode : Secure
Utilize accurate stream : Yes
Defeat audio cache : Yes
Make use of C2 pointers : No

Read offset correction : 103
Overread into Lead-In and Lead-Out : No
Fill up missing offset samples with silence : Yes
Delete leading and trailing silent blocks : No
Null samples used in CRC calculations : Yes
Used interface : Native Win32 interface for Win NT & 2000
Gap handling : Appended to previous track

Used output format : User Defined Encoder
Selected bitrate : 128 kBit/s
Quality : High
Add ID3 tag : No
Command line compressor : C:\Program Files (x86)\Exact Audio Copy\Flac\flac.exe
Additional command line options : -8 -V -T "ARTIST=%artist%" -T "TITLE=%title%" -T "ALBUM=%albumtitle%" -T "DATE=%year%" -T "TRACKNUMBER=%tracknr%" -T "GENRE=%genre%" -T "PERFORMER=%albuminterpret%" -T "COMPOSER=%composer%" %haslyrics%--tag-from-file=LYRICS="%lyricsfile%"%haslyrics% -T "ALBUMARTIST=%albumartist%" -T "DISCNUMBER=%cdnumber%" -T "TOTALDISCS=%totalcds%" -T "TOTALTRACKS=%numtracks%" -T "COMMENT=%comment%" %source% -o %dest%

TOC of the extracted CD

Track | Start | Length | Start sector | End sector
---------------------------------------------------------
1 | 0:00.00 | 6:15.18 | 0 | 28142
2 | 6:15.18 | 6:30.42 | 28143 | 57434
3 | 12:45.60 | 6:10.41 | 57435 | 85225
4 | 18:56.26 | 6:39.03 | 85226 | 115153
5 | 25:35.29 | 7:50.69 | 115154 | 150472
6 | 33:26.23 | 6:54.10 | 150473 | 181532
7 | 40:20.33 | 5:00.50 | 181533 | 204082
8 | 45:21.08 | 3:58.69 | 204083 | 222001
9 | 49:20.02 | 10:15.35 | 222002 | 268161

Track 1

Filename C:\eac\Peter Gabriel-So(Limited Edition 4cd Box Set)\So DNA\01 - Red Rain.wav

Pre-gap length 0:00:02.00

Peak level 99.9 %
Extraction speed 2.8 X
Track quality 100.0 %
Test CRC 17D25779
Copy CRC 17D25779
Track not present in AccurateRip database
Copy OK

Track 2

Filename C:\eac\Peter Gabriel-So(Limited Edition 4cd Box Set)\So DNA\02 - Sledgehammer.wav

Peak level 99.9 %
Extraction speed 3.2 X
Track quality 100.0 %
Test CRC 276DEE66
Copy CRC 276DEE66
Track not present in AccurateRip database
Copy OK

Track 3

Filename C:\eac\Peter Gabriel-So(Limited Edition 4cd Box Set)\So DNA\03 - Don't Give Up.wav

Peak level 87.4 %
Extraction speed 3.5 X
Track quality 100.0 %
Test CRC 0FE58BB1
Copy CRC 0FE58BB1
Track not present in AccurateRip database
Copy OK

Track 4

Filename C:\eac\Peter Gabriel-So(Limited Edition 4cd Box Set)\So DNA\04 - That Voice Again.wav

Peak level 99.9 %
Extraction speed 3.2 X
Track quality 99.9 %
Test CRC F3CBA05A
Copy CRC F3CBA05A
Track not present in AccurateRip database
Copy OK

Track 5

Filename C:\eac\Peter Gabriel-So(Limited Edition 4cd Box Set)\So DNA\05 - Mercy Street.wav

Peak level 98.7 %
Extraction speed 4.3 X
Track quality 100.0 %
Test CRC 016ADBA2
Copy CRC 016ADBA2
Track not present in AccurateRip database
Copy OK

Track 6

Filename C:\eac\Peter Gabriel-So(Limited Edition 4cd Box Set)\So DNA\06 - Big Time.wav

Peak level 99.9 %
Extraction speed 4.5 X
Track quality 100.0 %
Test CRC 12377388
Copy CRC 12377388
Track not present in AccurateRip database
Copy OK

Track 7

Filename C:\eac\Peter Gabriel-So(Limited Edition 4cd Box Set)\So DNA\07 - We Do What We're Told(Milgram's 37).wav

Peak level 99.9 %
Extraction speed 4.6 X
Track quality 100.0 %
Test CRC AE7D79D3
Copy CRC AE7D79D3
Track not present in AccurateRip database
Copy OK

Track 8

Filename C:\eac\Peter Gabriel-So(Limited Edition 4cd Box Set)\So DNA\08 - This Is The Picture(Excellent Birds).wav

Peak level 99.9 %
Extraction speed 4.6 X
Track quality 100.0 %
Test CRC 4B280FCD
Copy CRC 4B280FCD
Track not present in AccurateRip database
Copy OK

Track 9

Filename C:\eac\Peter Gabriel-So(Limited Edition 4cd Box Set)\So DNA\09 - In Your Eyes.wav

Peak level 99.9 %
Extraction speed 5.3 X
Track quality 100.0 %
Test CRC 27F5640C
Copy CRC 27F5640C
Track not present in AccurateRip database
Copy OK

None of the tracks are present in the AccurateRip database

No errors occurred

End of status report

---- CUETools DB Plugin V2.1.3

[CTDB TOCID: J7PpAg0wvA2_p_liQNT0mg_NTxg-] found, Submit result: J7PpAg0wvA2_p_liQNT0mg_NTxg- has been confirmed
[ddb752d2] (3/3) Accurately ripped

==== Log checksum 5D7F773B8148CDF821D543E4C2F64443BF26E655F319E7C606736C16AD4B4130 ====
REM GENRE Rock
REM DATE 2012
REM DISCID 7A0AD609
REM COMMENT "ExactAudioCopy v1.0b3"
CATALOG 0884108001417
PERFORMER "Peter Gabriel"
TITLE "So(Original Album Remastered)"
FILE "01 - Red Rain.wav" WAVE
TRACK 01 AUDIO
TITLE "Red Rain"
PERFORMER "Peter Gabriel"
ISRC GBCPB1200863
INDEX 01 00:00:00
TRACK 02 AUDIO
TITLE "Sledgehammer"
PERFORMER "Peter Gabriel"
ISRC GBCPB1200864
INDEX 00 05:38:28
FILE "02 - Sledgehammer.wav" WAVE
INDEX 01 00:00:00
TRACK 03 AUDIO
TITLE "Don't Give Up"
PERFORMER "Peter Gabriel"
ISRC GBCPB1200865
INDEX 00 05:12:64
FILE "03 - Don't Give Up.wav" WAVE
INDEX 01 00:00:00
TRACK 04 AUDIO
TITLE "That Voice Again"
PERFORMER "Peter Gabriel"
ISRC GBCPB1200866
INDEX 00 06:32:07
FILE "04 - That Voice Again.wav" WAVE
INDEX 01 00:00:00
TRACK 05 AUDIO
TITLE "Mercy Street"
PERFORMER "Peter Gabriel"
ISRC GBCPB1200867
INDEX 00 04:49:09
FILE "05 - Mercy Street.wav" WAVE
INDEX 01 00:00:00
FILE "06 - Big Time.wav" WAVE
TRACK 06 AUDIO
TITLE "Big Time"
PERFORMER "Peter Gabriel"
ISRC GBCPB1200868
INDEX 01 00:00:00
TRACK 07 AUDIO
TITLE "We Do What We're Told(Milgram's 37)"
PERFORMER "Peter Gabriel"
ISRC GBCPB1200869
INDEX 00 04:25:31
FILE "07 - We Do What We're Told(Milgram's 37).wav" WAVE
INDEX 01 00:00:00
TRACK 08 AUDIO
TITLE "This Is The Picture(Excellent Birds)"
PERFORMER "Peter Gabriel"
ISRC GBCPB1200870
INDEX 00 03:19:07
FILE "08 - This Is The Picture(Excellent Birds).wav" WAVE
INDEX 01 00:00:00
FILE "09 - In Your Eyes.wav" WAVE
TRACK 09 AUDIO
TITLE "In Your Eyes"
PERFORMER "Peter Gabriel"
ISRC GBCPB1200871
INDEX 01 00:00:00
REM GENRE Rock
REM DATE 2012
REM DISCID 660DAA09
REM COMMENT "ExactAudioCopy v1.0b3"
CATALOG 0884108001431
PERFORMER "Peter Gabriel"
TITLE "Live In Athens 1987(Disc 1)"
FILE "01 - This Is The Picture(Excellent Birds).wav" WAVE
TRACK 01 AUDIO
TITLE "This Is The Picture(Excellent Birds)"
PERFORMER "Peter Gabriel"
ISRC GBCPB1200897
INDEX 01 00:00:00
FILE "02 - San Jacinto.wav" WAVE
TRACK 02 AUDIO
TITLE "San Jacinto"
PERFORMER "Peter Gabriel"
ISRC GBCPB1200898
INDEX 01 00:00:00
FILE "03 - Shock The Monkey.wav" WAVE
TRACK 03 AUDIO
TITLE "Shock The Monkey"
PERFORMER "Peter Gabriel"
ISRC GBCPB1200899
INDEX 01 00:00:00
FILE "04 - Family Snapshot.wav" WAVE
TRACK 04 AUDIO
TITLE "Family Snapshot"
PERFORMER "Peter Gabriel"
ISRC GBCPB1200900
INDEX 01 00:00:00
FILE "05 - Intruder.wav" WAVE
TRACK 05 AUDIO
TITLE "Intruder"
PERFORMER "Peter Gabriel"
ISRC GBCPB1200901
INDEX 01 00:00:00
FILE "06 - Games Without Frontiers.wav" WAVE
TRACK 06 AUDIO
TITLE "Games Without Frontiers"
PERFORMER "Peter Gabriel"
ISRC GBCPB1200902
INDEX 01 00:00:00
FILE "07 - No Self Control.wav" WAVE
TRACK 07 AUDIO
TITLE "No Self Control"
PERFORMER "Peter Gabriel"
ISRC GBCPB1200903
INDEX 01 00:00:00
FILE "08 - Mercy Street.wav" WAVE
TRACK 08 AUDIO
TITLE "Mercy Street"
PERFORMER "Peter Gabriel"
ISRC GBCPB1200904
INDEX 01 00:00:00
FILE "09 - The Family And The Fishing Net.wav" WAVE
TRACK 09 AUDIO
TITLE "The Family And The Fishing Net"
PERFORMER "Peter Gabriel"
ISRC GBCPB1200905
INDEX 01 00:00:00
REM GENRE Rock
REM DATE 2012
REM DISCID 6B0B3907
REM COMMENT "ExactAudioCopy v1.0b3"
CATALOG 0884108001448
PERFORMER "Peter Gabriel"
TITLE "Live In Athens 1987(Disc 2)"
FILE "01 - Don't Give Up.wav" WAVE
TRACK 01 AUDIO
TITLE "Don't Give Up"
PERFORMER "Peter Gabriel"
ISRC GBCPB1200906
INDEX 01 00:00:00
FILE "02 - Solsbury Hill.wav" WAVE
TRACK 02 AUDIO
TITLE "Solsbury Hill"
PERFORMER "Peter Gabriel"
ISRC GBCPB1200907
INDEX 01 00:00:00
FILE "03 - Lay Your Hands On Me.wav" WAVE
TRACK 03 AUDIO
TITLE "Lay Your Hands On Me"
PERFORMER "Peter Gabriel"
ISRC GBCPB1200908
INDEX 01 00:00:00
FILE "04 - Sledgehammer.wav" WAVE
TRACK 04 AUDIO
TITLE "Sledgehammer"
PERFORMER "Peter Gabriel"
ISRC GBCPB1200909
INDEX 01 00:00:00
FILE "05 - Here Comes The Flood.wav" WAVE
TRACK 05 AUDIO
TITLE "Here Comes The Flood"
PERFORMER "Peter Gabriel"
ISRC GBCPB1200910
INDEX 01 00:00:00
FILE "06 - In Your Eyes.wav" WAVE
TRACK 06 AUDIO
TITLE "In Your Eyes"
PERFORMER "Peter Gabriel"
ISRC GBCPB1200911
INDEX 01 00:00:00
FILE "07 - Biko.wav" WAVE
TRACK 07 AUDIO
TITLE "Biko"
PERFORMER "Peter Gabriel"
ISRC GBCPB1200912
INDEX 01 00:00:00
REM GENRE Rock
REM DATE 2012
REM DISCID 790DF709
REM COMMENT "ExactAudioCopy v1.0b3"
CATALOG 0884108001455
PERFORMER "Peter Gabriel"
TITLE "So DNA"
FILE "01 - Red Rain.wav" WAVE
TRACK 01 AUDIO
TITLE "Red Rain "
PERFORMER "Peter Gabriel"
ISRC GBCPB1200944
INDEX 01 00:00:00
FILE "02 - Sledgehammer.wav" WAVE
TRACK 02 AUDIO
TITLE "Sledgehammer"
PERFORMER "Peter Gabriel"
ISRC GBCPB1200945
INDEX 01 00:00:00
FILE "03 - Don't Give Up.wav" WAVE
TRACK 03 AUDIO
TITLE "Don't Give Up"
PERFORMER "Peter Gabriel"
ISRC GBCPB1200946
INDEX 01 00:00:00
FILE "04 - That Voice Again.wav" WAVE
TRACK 04 AUDIO
TITLE "That Voice Again "
PERFORMER "Peter Gabriel"
ISRC GBCPB1200947
INDEX 01 00:00:00
FILE "05 - Mercy Street.wav" WAVE
TRACK 05 AUDIO
TITLE "Mercy Street"
PERFORMER "Peter Gabriel"
ISRC GBCPB1200948
INDEX 01 00:00:00
FILE "06 - Big Time.wav" WAVE
TRACK 06 AUDIO
TITLE "Big Time "
PERFORMER "Peter Gabriel"
ISRC GBCPB1200949
INDEX 01 00:00:00
FILE "07 - We Do What We're Told(Milgram's 37).wav" WAVE
TRACK 07 AUDIO
TITLE "We Do What We're Told(Milgram's 37)"
PERFORMER "Peter Gabriel"
ISRC GBCPB1200950
INDEX 01 00:00:00
FILE "08 - This Is The Picture(Excellent Birds).wav" WAVE
TRACK 08 AUDIO
TITLE "This Is The Picture(Excellent Birds)"
PERFORMER "Peter Gabriel"
ISRC GBCPB1200951
INDEX 01 00:00:00
FILE "09 - In Your Eyes.wav" WAVE
TRACK 09 AUDIO
TITLE "In Your Eyes"
PERFORMER "Peter Gabriel"
ISRC GBCPB1200952
INDEX 01 00:00:00
AUDIOCHECKER v2.0 beta (build 457) - by Dester - <a href="mailto:opdester@freemail.hu" class="postLink">opdester@freemail.hu</a>
~~~~~~~~~~~~~~~~~~~~~~~~~~~~~~~~~~
-=== НЕ РЕДАКТИРУЙТЕ ЭТОТ ФАЙЛ! ===-

Путь: ...\CD1 So (Original Album Remastered)

01 -=- 01 - Red Rain.flac -=- CDDA (100%)
02 -=- 02 - Sledgehammer.flac -=- CDDA (100%)
03 -=- 03 - Don't Give Up.flac -=- CDDA (100%)
04 -=- 04 - That Voice Again.flac -=- CDDA (100%)
05 -=- 05 - Mercy Street.flac -=- CDDA (100%)
06 -=- 06 - Big Time.flac -=- CDDA (100%)
07 -=- 07 - We Do What We're Told(Milgram's 37).flac -=- CDDA (100%)
08 -=- 08 - This Is The Picture(Excellent Birds).flac -=- CDDA (100%)
09 -=- 09 - In Your Eyes.flac -=- CDDA (100%)

Сводка 100,00% CDDA

119645108
AUDIOCHECKER v2.0 beta (build 457) - by Dester - <a href="mailto:opdester@freemail.hu" class="postLink">opdester@freemail.hu</a>
~~~~~~~~~~~~~~~~~~~~~~~~~~~~~~~~~~
-=== НЕ РЕДАКТИРУЙТЕ ЭТОТ ФАЙЛ! ===-

Путь: ...\CD2 Live In Athens 1987 (Disc 1)

01 -=- 01 - This Is The Picture(Excellent Birds).flac -=- CDDA (100%)
02 -=- 02 - San Jacinto.flac -=- CDDA (42%)
03 -=- 03 - Shock The Monkey.flac -=- CDDA (43%)
04 -=- 04 - Family Snapshot.flac -=- CDDA (49%)
05 -=- 05 - Intruder.flac -=- CDDA (100%)
06 -=- 06 - Games Without Frontiers.flac -=- CDDA (100%)
07 -=- 07 - No Self Control.flac -=- CDDA (86%)
08 -=- 08 - Mercy Street.flac -=- CDDA (86%)
09 -=- 09 - The Family And The Fishing Net.flac -=- CDDA (54%)

Сводка 73,33% CDDA

77889380
AUDIOCHECKER v2.0 beta (build 457) - by Dester - <a href="mailto:opdester@freemail.hu" class="postLink">opdester@freemail.hu</a>
~~~~~~~~~~~~~~~~~~~~~~~~~~~~~~~~~~
-=== НЕ РЕДАКТИРУЙТЕ ЭТОТ ФАЙЛ! ===-

Путь: ...\CD3 Live In Athens 1987 (Disc 2)

01 -=- 01 - Don't Give Up.flac -=- CDDA (62%)
02 -=- 02 - Solsbury Hill.flac -=- CDDA (58%)
03 -=- 03 - Lay Your Hands On Me.flac -=- CDDA (54%)
04 -=- 04 - Sledgehammer.flac -=- CDDA (86%)
05 -=- 05 - Here Comes The Flood.flac -=- CDDA (42%)
06 -=- 06 - In Your Eyes.flac -=- CDDA (43%)
07 -=- 07 - Biko.flac -=- CDDA (94%)

Сводка 62,71% CDDA

9922644
AUDIOCHECKER v2.0 beta (build 457) - by Dester - <a href="mailto:opdester@freemail.hu" class="postLink">opdester@freemail.hu</a>
~~~~~~~~~~~~~~~~~~~~~~~~~~~~~~~~~~
-=== НЕ РЕДАКТИРУЙТЕ ЭТОТ ФАЙЛ! ===-

Путь: ...\CD4 So DNA

1 -=- 01 - Red Rain.flac -=- CDDA (100%)
2 -=- 02 - Sledgehammer.flac -=- CDDA (100%)
3 -=- 03 - Don't Give Up.flac -=- ERROR
4 -=- 04 - That Voice Again.flac -=- CDDA (100%)
5 -=- 05 - Mercy Street.flac -=- ERROR
6 -=- 06 - Big Time.flac -=- CDDA (100%)
7 -=- 07 - We Do What We're Told(Milgram's 37).flac -=- CDDA (42%)
8 -=- 08 - This Is The Picture(Excellent Birds).flac -=- CDDA (100%)
9 -=- 09 - In Your Eyes.flac -=- CDDA (99%)

Сводка 91,57% CDDA

214977028
CD 1:
CD 2:
CD 3:
CD 4:
Питер Габриэл — это один из немногих артистов, который не только меняется вместе со временем, но и сам постоянно на протяжении всей своей более чем тридцатилетней карьеры оказывает на музыку огромное влияние, в какой бы новой ипостаси он не появлялся. Его превращения, сначала из эксцентричного, склонного к театральным эффектам лидера рок-группы в предприимчивого поп-артиста, а затем в энтузиаста традиционной музыки, отмечают этапы эволюции одной из самых необычных фигур в истории рока.

О нём вспоминаешь ночью. Когда не спится и накатывает странное чувство, находящее отклик в необычной насыщенной музыке. Тогда каждая песня выжигается в раскалённом за день мозгу и прокручивается в сознании всевозможными вариациями в какой-то оркестровой яме, в которую превращается внезапно опрокинутое под ноги небо. Когда его открываешь для себя, его музыка пускает в вас корни и дальше ветвится совершенно независимо во все стороны. Человек-ключ, но не человек-дверь. Что-то важное открыв своей музыкой, он вряд ли откроется сам.

Он одним из первых стал насыщать музыку и клипы компьютерными технологиями и восточными ритмами. Он первым обьявил миру, что смерть является в виде белой тени. Лучший, по его мнению, способ записать альбом – “сделать и записать полностью, потом выбросить то, что получилось и еще раз записать его вживую.” А еще он умеет играть на флейте, клавишных, африканских барабанах и во многие другие игры без границ, убивать взглядом и петь в два микрофона одновременно. Его считают гением.

Этого диска Гэбриэла поклонники ждали без малого четыре года. Разъясняя позже причину столь длительных перерывов в своей работе, он говорил:

«Некоторые писатели работают над своими книгами по семь-восемь лет, другим хватает 7-8 дней. Все зависит от того, что вы собираетесь сделать и насколько детально. При быстрой работе всегда приходится чем-то поступаться».

И в другой раз:

«В роке я придерживаюсь черепашьей тактики. Нас таких несколько. Исполнители вроде меня верят в то, что звукозапись — дело, на которое не жалко времени, и на одну пластинку у нас часто уходит два-три года».

Долгожданный альбом 86-го «So» отличался от предыдущих уже тем, что имел свое название. Он добрался до второй строчки в чартах и принес Гэбриэлу первую «Grammy». Американский музыкальный журнал «Billboard» в рецензии на диск выказал мысль, что тот является таким же верстовым столбом в творчестве Гэбриэла, как альбом «Let’s Dance» у Дэвида Боуи.

О том, что творчество Гэбриэла приобрело новые измерения лиричности и интимности, свидетельствовала частично автобиографическая запись «Big Time», в которой автор целился в неуёмное желание успеха и творческую некритичность. Одним из самых сильных моментов диска стал дуэт с Кейт Буш на «Don’t Give Up».

Темой песни являлась безработица и тот душевный стресс и дискомфорт, что она приносит — но есть и подтекст, говорящий о месте человека в общественной жизни. То, что возвращение Гэбриэлу удалось, говорила читательская анкета «Record Mirror» за 1986 год. Среди самых лучших музыкантов он занял третье место. Композиция «Sledgehammer», поддержанная удачным видеоклипом, стала трансатлантическим хитом и от неё лишь чуть-чуть отставали «Big Time» и «In Your Eyes».

Альбом “So” получился на гребне, на высоте и по уже подмеченным Питером законам – он всё знал. Пилотный хит – “Sledgehammer”. Молот ударил не только по барабанным перепонкам, но и по зрительным рецепторам – анимационный клип на эту песню открыл миру глаза на то,как надо подходить к иллюстрированию музыки вообще. Подлинным шедевром этого альбома стала загадочная композиция “Red Rain”. И хотя затемнённый клип на неё не стал открытием, сама музыка запомнилась на годы.

“Красный Дождь” смыл с вершины хит-парада всё, в том числе неслабую “Invisible Touch” коллинзовских GENESIS. На нестандартных ритмах построены песни “In Your Eyes”, “That Voice Again”. Депрессивная “Mercy Street”, напротив, льётся спокойно, с минимумом ударных.

Опубликовано: Александр Колчин, Август 22 дня, 2012 года (gusli.su)
http://www.facebook.com/PeterGabriel/app_192102540813229
Peter Gabriel (vocals, keyboards)
Kate Bush, Laurie Anderson, Youssou N'Dour (vocals)
David Rhodes (guitar, background vocals)
Daniel Lanois (guitar, tambourine)
Nile Rodgers (guitar)
L. Shankar (violin)
Mark Rivera (alto, tenor & baritone saxophones)
Wayne Jackson (trumpet)
Don Mikelsen (trombone)
Richard Tee (piano)
Simon Clark (Hammond B3 organ, synthesizer, bass)
Tony Levin (bass, Chapman stick)
Larry Klein, Bill Laswell (bass)
Manu Katche (drums, talking drums)
Jerry Marotta, Stewart Copeland (drums)
Chris Hughes (programming)
Djalma Correa (surdu, congas, triangle)
Jimm Kerr (background vocals)


Трекер:  [ 29-Окт-2012 08:22 ]

  

Скачать .torrent

Размер .torrent файла 18 KB


Размер: 1.34 GB
Хэш (hash) релиза: 7e31e674d57158a83ac0d0c42d39af5e07ffd658

Торренты, похожие на Peter Gabriel - скачать торрент

Форум Название Автор Размер S L Добавлен
Rосk | Mеtаl | Аltеrnаtivе, Рunk, Indереndеnt (losslеss) ·· (Progressive Rock, Art-Rock) Peter Gabriel - Peter Gabriel. The Mail On Sunday Promotion - 2007, FLAC (image+.cue), lossless Galfimbul 477705176456 MB 0 0 1363790143

17:35

20-Мар-13

Rосk | Mеtаl | Аltеrnаtivе, Рunk, Indереndеnt (losslеss) ·· (Prog-Rock) Peter Gabriel - 1980 - Peter Gabriel (PGCD 3) [Nimbus] - 1987, FLAC (image+.cue), lossless Galfimbul 414603411395 MB 0 0 1362688329

23:32

7-Мар-13

Rосk | Mеtаl | Аltеrnаtivе, Рunk, Indереndеnt (losslеss) ·· (Prog-Rock) Peter Gabriel - 1977 - Peter Gabriel (PGCD 1) [Nimbus] - 1987, FLAC (image+.cue), lossless Galfimbul 396504487378 MB 0 0 1362645366

11:36

7-Мар-13

Rосk | Mеtаl | Аltеrnаtivе, Рunk, Indереndеnt (losslеss) ·· (Prog Rock) Peter Gabriel - Peter Gabriel IV [Japan Remasters, EMI TOCP-66080] - 2002, FLAC (image+.cue), lossless Galfimbul 264952897253 MB 0 0 1297859694

15:34

16-Фев-11

Rосk | Mеtаl | Аltеrnаtivе, Рunk, Indереndеnt (losslеss) ·· (Progressive Rock / Rock) Peter Gabriel - Peter Gabriel 1 (PGCD1) - 1977, FLAC (image+.cue), lossless Galfimbul 289111916276 MB 0 0 1297859270

15:27

16-Фев-11

Rосk | Mеtаl | Аltеrnаtivе, Рunk, Indереndеnt (losslеss) ·· (Prog Rock) Peter Gabriel - Peter Gabriel 3 [EU Remasters, Virgin Limited Edition 7243 8 11681 2 7] - 2002, FLAC (image+.cue), lossless Galfimbul 280101318267 MB 0 0 1297859139

15:25

16-Фев-11

Rосk | Mеtаl | Аltеrnаtivе, Рunk, Indереndеnt (mр3) ·· (Progressive & ArtRock) Peter Gabriel (ex-Genesis) - Discography/Дискография 1977-2014 (36 Аlbums+23 Singles, 85CD), MP3 (tracks), 320 kbps Galfimbul 1422448869013.25 GB 0 0 1498122383

12:06

22-Июн-17

Rосk | Mеtаl | Аltеrnаtivе, Рunk, Indереndеnt (mр3) ·· (Progressive Rock) Peter Gabriel - The Veil [WEB-single] - 2016, MP3, 256 kbps Galfimbul 1192044911 MB 0 0 1495796556

14:02

26-Май-17

Rосk | Mеtаl | Аltеrnаtivе, Рunk, Indереndеnt (mр3) ·· (Progressive Rock) Peter Gabriel - I’m Amazing [WEB-single] - 2016, MP3, 256 kbps Galfimbul 1474093814 MB 0 0 1495794849

13:34

26-Май-17

Rосk | Mеtаl | Аltеrnаtivе, Рunk, Indереndеnt (mр3) ·· (Progressive Rock / Art Rock / Worldbeat) Peter Gabriel - Live In Athens (Bootleg) - 1987 / 2013, MP3, 320 kbps Galfimbul 294313405281 MB 0 0 1467768523

04:28

6-Июл-16

Rосk | Mеtаl | Аltеrnаtivе, Рunk, Indереndеnt (mр3) ·· (Pop Rock, Art Rock, Prog Rock) Peter Gabriel - Back To Front 2014 17.05.14 Riga Latvia - 2014, MP3, 320 kbps Galfimbul 334555180319 MB 0 0 1455661353

01:22

17-Фев-16

Rосk | Mеtаl | Аltеrnаtivе, Рunk, Indереndеnt (losslеss) ·· (Progressive Rock) Peter Gabriel - Official Discography [non-remasters] (1977-2012) - 20 albums, FLAC (image+.cue), lossless Galfimbul 1359170265012.66 GB 0 0 1380121011

17:56

25-Сен-13

Rосk | Mеtаl | Аltеrnаtivе, Рunk, Indереndеnt (losslеss) ·· (Progressive Rock) Peter Gabriel - Official Discography [non-remasters] (1977-2012) - 20 issues, FLAC (image+.cue), lossless Polarnik 1359183103412.66 GB 0 0 1379882842

23:47

22-Сен-13

Rосk | Mеtаl | Аltеrnаtivе, Рunk, Indереndеnt (mр3) ·· (Rock) Peter Gabriel - And I'll Scratch Yours - 2013, MP3, 320 kbps Galfimbul 131931900126 MB 0 0 1379753050

11:44

21-Сен-13

Зарубежный Rock ·· (Progressive rock, worldbeat) Peter Gabriel - Us (1992) [US - GEFD 24473, 1992], FLAC (image+.cue), lossless Galfimbul 379382616362 MB 0 0 1357332660

23:51

4-Янв-13

Зарубежный Rock ·· (Prog Rock) Peter Gabriel - Back To Front: Encore Series 2CD - 2012, MP3, 320 kbps Galfimbul 327304744312 MB 0 0 1354540500

16:15

3-Дек-12

Зарубежный Rock ·· (Progressive Rock) Peter Gabriel - So [25th Anniversary Deluxe Edition] 3CDS - 2012, MP3, 320 kbps Galfimbul 366280479349 MB 0 0 1351334220

13:37

27-Окт-12

Зарубежный Rock ·· (Crossover Prog) Peter Gabriel - PG III The Shop Tape 1980 - 1980, FLAC (tracks), lossless _N_ 266125532254 MB 0 0 1350646200

14:30

19-Окт-12

Зарубежный Rock ·· (Rock) Peter Gabriel - A New Perspective: Live In Lancaster,England (2 CD) (Bootleg) - 1978, MP3 (tracks), 320 kbps Galfimbul 232446340222 MB 0 0 1348468980

09:43

24-Сен-12

Еще никто не оставлял запись к записи скачать торрент Peter Gabriel - . Будь первым!

!Обратная связь