Скачать через торрент музыку Elvis Presley -=1975=- Promised Land, APE бесплатно без регистрации torrent

Если у вас наблюдаются проблемы со скриншотами, переходом по ссылками, скачиванием торрентов - проблемы в блокировщике рекламы AdBlock. #хорошегоДня!


Статистика раздачи
Размер:  555 MB   |    Зарегистрирован:  4 года 11 месяцев   |    .torrent скачан:  8 раз   |   
Раздают:  1  
   
Загрузка...
 
Автор Сообщение

_N_

avatar _N_


Elvis Presley -=1975=- Promised LandOriginal & Bonus Track Version
ОРИГИНАЛЬНАЯ ВЕРСИЯ
Жанр: Rock'n'Roll
Год выпуска: 1975
Производитель диска: США
Лейбл: RCA
Каталожный номер: ND 90 598
Аудио кодек: APE
Тип рипа: image+.cue
Битрейт аудио: lossless
Продолжительность: 00:29:52
Наличие сканов в содержимом раздачи: да

Треклист:
01 - Promise Land [2:58]
02 - There's A Honky Tonk Angel [3:05]
03 - Help Me [2:29]
04 - Mr.Songman [2:09]
05 - Love Song Of The Year [3:34]
06 - It's Midnight [3:22]
07 - Your Love's Been A Long Time Coming [3:47]
08 - If You Talk In Yuor Sleep [2:35]
09 - Thinking About You [3:01]
10 - You Asked Me To [2:53]


Отчёт EAC об извлечении, выполненном 21. сентября 2007, 18:58 для диска:Elvis Presley / Promised Land

Дисковод: ASUS DRW-1612BL Adapter: 1 ID: 0Режим чтения: Достоверный (C2: нет, Точный поток: да, Отключение кэша: да)Коррекция смещения при чтении: +3Способность читать области Lead-in и Lead-out : Нет

Выходной формат: Monkey's Audio Lossless Encoder v3.99 DLL High Lossless Compression

Другие параметры: Заполнение пропущенных сэмплов тишиной : Да Удаление блоков с тишиной в начале и конце : Нет Встроенный Win32-интерфейс для Win NT/2000

Характеристики диапазона извлечения и сообщения об ошибкахВыбранный диапазон Имя файла K:\!! Extract !!\Elvis Presley-1975-Promised Land.ape

Пиковый уровень 82.2 % Качество диапазона 99.9 % CRC 6374CEF1 Копирование... OK

Ошибок не произошло

Конец отчёта
ВЕРСИЯ С БОНУСТРЕКАМИ
Жанр: Rock'n'Roll
Год выпуска: 2000
Производитель диска: США
Лейбл: RCA
Каталожный номер: 07863 67930 2
Аудио кодек: APE
Тип рипа: image+.cue
Битрейт аудио: lossless
Продолжительность: 00:54:49
Наличие сканов в содержимом раздачи: да

Треклист:
01 - Promised Land [2:58]
02 - There's a Honky Tonk Angel (Who Will Take Me Back In) [3:05]
03 - Help Me [2:29]
04 - Mr. Songman [2:09]
05 - Love Song of the Year [3:34]
06 - It's Midnight [3:23]
07 - Your Love's Been a Long Time Coming [3:47]
08 - If You Talk in Your Sleep [2:35]
09 - Thinking About You [3:01]
10 - You Asked Me To [2:53]
11 - Loving Arms (Bonus Track) [2:52]
12 - I Got A Feeling In My Body (Bonus Track) [3:35]
13 - If That Isn't Love (Bonus Track) [3:33]
14 - She Wears My Ring (Bonus Track) [3:22]
15 - My Boy (Bonus Track) [3:20]
16 - Spanish Eyes (Bonus Track) [2:23]
17 - Talk About The Good Times (Bonus Track) [2:39]
18 - Good Time Charlie's Got The Blues (Bonus Track) [3:12]


Exact Audio Copy V0.99 prebeta 5 from 4. May 2009

Отчёт EAC об извлечении, выполненном 2. апреля 2011, 0:29

Elvis Presley / Promised Land

Дисковод: ASUS DRW-24B1ST Adapter: 0 ID: 0

Режим чтения : ДостоверностьИспользование точного потока : ДаОтключение кэша аудио : ДаИспользование указателей C2 : Нет

Коррекция смещения при чтении : 6Способность читать области Lead-in и Lead-out : НетЗаполнение пропущенных сэмплов тишиной : ДаУдаление блоков с тишиной в начале и конце : НетПри вычислениях CRC использовались нулевые сэмплы : ДаИнтерфейс : Встроенный Win32-интерфейс для Win NT/2000

Выходной формат : Внутренние WAV-операцииФормат сэмплов : 44.100 Гц; 16 бит; стерео

TOC извлечённого CD

Трек | Старт | Длительность | Начальный сектор | Конечный сектор --------------------------------------------------------------------- 1 | 0:00.00 | 2:57.70 | 0 | 13344 2 | 2:57.70 | 3:05.00 | 13345 | 27219 3 | 6:02.70 | 2:29.27 | 27220 | 38421 4 | 8:32.22 | 2:08.48 | 38422 | 48069 5 | 10:40.70 | 3:33.42 | 48070 | 64086 6 | 14:14.37 | 3:23.20 | 64087 | 79331 7 | 17:37.57 | 3:46.53 | 79332 | 96334 8 | 21:24.35 | 2:35.02 | 96335 | 107961 9 | 23:59.37 | 3:00.70 | 107962 | 121531 10 | 27:00.32 | 2:52.58 | 121532 | 134489 11 | 29:53.15 | 2:52.02 | 134490 | 147391 12 | 32:45.17 | 3:35.15 | 147392 | 163531 13 | 36:20.32 | 3:32.63 | 163532 | 179494 14 | 39:53.20 | 3:22.17 | 179495 | 194661 15 | 43:15.37 | 3:20.33 | 194662 | 209694 16 | 46:35.70 | 2:23.02 | 209695 | 220421 17 | 48:58.72 | 2:38.48 | 220422 | 232319 18 | 51:37.45 | 3:12.02 | 232320 | 246721

Характеристики диапазона извлечения и сообщения об ошибках

Выбранный диапазон

Имя файла J:\Музыка на разбор\! EXTRACT !\Elvis Presley=2000=Promised Land.wav

Пиковый уровень 100.0 % Качество диапазона 100.0 % CRC теста FB08C00F CRC копии FB08C00F Копирование... OK

Ошибок не произошло

AccurateRip: сводка

Трек 1 точность не определена (достоверность 8) [3D1CBCB3], AccurateRip вернул [9028798B]Трек 2 точность не определена (достоверность 8) [A506EEBC], AccurateRip вернул [8BE9F818]Трек 3 точность не определена (достоверность 8) [57FAFEC9], AccurateRip вернул [AA907E6D]Трек 4 точность не определена (достоверность 8) [8A2BFD44], AccurateRip вернул [90CD8944]Трек 5 точность не определена (достоверность 8) [3F3CEB17], AccurateRip вернул [4AD3030F]Трек 6 точность не определена (достоверность 8) [49E70827], AccurateRip вернул [649A8E7B]Трек 7 точность не определена (достоверность 8) [B5667129], AccurateRip вернул [1164E751]Трек 8 точность не определена (достоверность 8) [B74B6AC1], AccurateRip вернул [B421AC55]Трек 9 точность не определена (достоверность 8) [4DBFC99D], AccurateRip вернул [2B97DD69]Трек 10 точность не определена (достоверность 8) [D5389CE1], AccurateRip вернул [36391D95]Трек 11 точность не определена (достоверность 7) [FCDD5339], AccurateRip вернул [A95A1629]Трек 12 точность не определена (достоверность 7) [4595370D], AccurateRip вернул [A90AE171]Трек 13 точность не определена (достоверность 7) [771EA630], AccurateRip вернул [E0528CF0]Трек 14 точность не определена (достоверность 7) [AB8562CF], AccurateRip вернул [6A60A417]Трек 15 точность не определена (достоверность 7) [20064F82], AccurateRip вернул [EADB9B92]Трек 16 точность не определена (достоверность 7) [6CD59EAF], AccurateRip вернул [67D6AE47]Трек 17 точность не определена (достоверность 7) [DA3AFE8A], AccurateRip вернул [EF9CC4AA]Трек 18 точность не определена (достоверность 7) [ACC040CF], AccurateRip вернул [6A5EF915]

Ни один трек не прошёл проверки на точностьВ вашей базе может быть иной вариант штамповки диска

Конец отчёта


Трекер:  [ 29-Окт-2012 08:23 ]

  

Скачать .torrent

Размер .torrent файла 13 KB


Размер: 555 MB
Хэш (hash) релиза: 9c67c9d1a9567614a03f018ed66789b7fd56256d

Еще никто не оставлял запись к записи скачать торрент Elvis Presley -=1975=- Promised Land, APE . Будь первым!

!Обратная связь