Скачать через торрент музыку Sleepy LaBeef - A Rockin Decade 70-79 - 1997, бесплатно без регистрации torrent

Если у вас наблюдаются проблемы со скриншотами, переходом по ссылками, скачиванием торрентов - проблемы в блокировщике рекламы AdBlock. #хорошегоДня!


Статистика раздачи
Размер:  418 MB   |    Зарегистрирован:  5 лет   |    .torrent скачан:  9 раз   |   
Раздают:  1  
   
Загрузка...
 
Автор Сообщение

_N_

avatar _N_


Sleepy LaBeef / A Rockin' Decade

Жанр: Rock'n'Roll
Страна-производитель диска: Österreich
Год издания: 1997
Издатель (лейбл): Charly
Номер по каталогу: CPCD 8303
Страна: USA
Аудиокодек: FLAC (*.flac)
Тип рипа: image+.cue
Битрейт аудио: lossless
Продолжительность: 69:22
Источник (релизер): AUDELAS KINGDOM
Наличие сканов в содержимом раздачи: да
01. Too Much Monkey Business
02. Blackland Farmer
03. Boom, Boom, Boom
04. Honey Hush
05. Stormy Monday Blues
06. Good Rocking Boogie
07. Roll Over, Beethoven
08. You Can't Judge A Book By It's Cover
09. Matchbox
10. What Am I Living For
11. Baby, Let's Play House
12. Blue Moon Of Kentucky
13. Rock 'N' Roll Ruby
14. Big Boss Man
15. Boogie Woogie Country Girl
16. Mystery Train
17. Honky-Tonk Hardwood Floor
18. Tore Up
19. Flying Saucers Rock 'N' Roll
20. Red Hot
21. Honky-Tonk Man
22. Jack & Jill Boogie
23. Shotgun Boogie
24. Go Ahead On Baby
25. Milk Cow Blues
26. Shame, Shame, Shame

Exact Audio Copy V1.0 beta 2 from 29. April 2011

EAC extraction logfile from 28. October 2012, 12:40

Sleepy LaBeef / A Rockin' Decade

Used drive : _NEC DVD_RW ND-3550A Adapter: 1 ID: 0

Read mode : SecureUtilize accurate stream : YesDefeat audio cache : YesMake use of C2 pointers : No

Read offset correction : 48Overread into Lead-In and Lead-Out : NoFill up missing offset samples with silence : YesDelete leading and trailing silent blocks : NoNull samples used in CRC calculations : YesUsed interface : Native Win32 interface for Win NT & 2000

Used output format : User Defined EncoderSelected bitrate : 768 kBit/sQuality : HighAdd ID3 tag : NoCommand line compressor : C:\Program Files\Exact Audio Copy\FLAC\FLAC.EXEAdditional command line options : -6 -V -T "ARTIST=%artist%" -T "TITLE=%title%" -T "ALBUM=%albumtitle%" -T "DATE=%year%" -T "TRACKNUMBER=%tracknr%" -T "GENRE=%genre%" -T "COMMENT=%comment%" -T "BAND=%albuminterpret%" -T "COMPOSER=%composer%" %haslyrics%--ta

TOC of the extracted CD

Track | Start | Length | Start sector | End sector --------------------------------------------------------- 1 | 0:00.00 | 2:04.30 | 0 | 9329 2 | 2:04.30 | 2:22.25 | 9330 | 20004 3 | 4:26.55 | 2:39.52 | 20005 | 31981 4 | 7:06.32 | 2:46.05 | 31982 | 44436 5 | 9:52.37 | 4:28.35 | 44437 | 64571 6 | 14:20.72 | 1:54.68 | 64572 | 73189 7 | 16:15.65 | 2:53.32 | 73190 | 86196 8 | 19:09.22 | 2:44.63 | 86197 | 98559 9 | 21:54.10 | 2:31.20 | 98560 | 109904 10 | 24:25.30 | 3:43.50 | 109905 | 126679 11 | 28:09.05 | 2:08.65 | 126680 | 136344 12 | 30:17.70 | 2:36.47 | 136345 | 148091 13 | 32:54.42 | 2:21.13 | 148092 | 158679 14 | 35:15.55 | 2:41.22 | 158680 | 170776 15 | 37:57.02 | 2:32.38 | 170777 | 182214 16 | 40:29.40 | 1:48.67 | 182215 | 190381 17 | 42:18.32 | 2:20.30 | 190382 | 200911 18 | 44:38.62 | 2:22.23 | 200912 | 211584 19 | 47:01.10 | 1:56.67 | 211585 | 220351 20 | 48:58.02 | 3:08.73 | 220352 | 234524 21 | 52:07.00 | 2:20.27 | 234525 | 245051 22 | 54:27.27 | 2:18.43 | 245052 | 255444 23 | 56:45.70 | 2:32.62 | 255445 | 266906 24 | 59:18.57 | 2:56.40 | 266907 | 280146 25 | 62:15.22 | 3:10.13 | 280147 | 294409 26 | 65:25.35 | 1:58.17 | 294410 | 303276

Range status and errors

Selected range

Filename D:\Muzika\Sleepy LaBeef - A Rockin' Decade (1997)\Sleepy LaBeef - A Rockin' Decade.wav

Peak level 95.5 % Extraction speed 2.2 X Range quality 100.0 % Test CRC 206E9649 Copy CRC 206E9649 Copy OK

No errors occurred

AccurateRip summary

Track 1 not present in databaseTrack 2 not present in databaseTrack 3 not present in databaseTrack 4 not present in databaseTrack 5 not present in databaseTrack 6 not present in databaseTrack 7 not present in databaseTrack 8 not present in databaseTrack 9 not present in databaseTrack 10 not present in databaseTrack 11 not present in databaseTrack 12 not present in databaseTrack 13 not present in databaseTrack 14 not present in databaseTrack 15 not present in databaseTrack 16 not present in databaseTrack 17 not present in databaseTrack 18 not present in databaseTrack 19 not present in databaseTrack 20 not present in databaseTrack 21 not present in databaseTrack 22 not present in databaseTrack 23 not present in databaseTrack 24 not present in databaseTrack 25 not present in databaseTrack 26 not present in database

None of the tracks are present in the AccurateRip database

End of status report

==== Log checksum B165B9F8CEDAFF8BE21EB098CDA94B336E2B9E2074EA2C6A6F32A880996CA999 ====


Трекер:  [ 29-Окт-2012 08:23 ]

  

Скачать .torrent

Размер .torrent файла 17 KB


Размер: 418 MB
Хэш (hash) релиза: 6706cefab993d5aa7c435bc89eae4b007278cc27

Еще никто не оставлял запись к записи скачать торрент Sleepy LaBeef - A Rockin Decade 70-79 - 1997, . Будь первым!

!Обратная связь