Скачать через торрент музыку John Leyton - Two Sides Of John Leyton Always Yours бесплатно без регистрации torrent

Если у вас наблюдаются проблемы со скриншотами, переходом по ссылками, скачиванием торрентов - проблемы в блокировщике рекламы AdBlock. #хорошегоДня!


Статистика раздачи
Размер:  264 MB   |    Зарегистрирован:  5 лет   |    .torrent скачан:  19 раз   |   
Раздают:  1  
   
Загрузка...
 
Автор Сообщение

_N_

avatar _N_


John Leyton / Two Sides Of John Leyton - Always Yours

Жанр: Rock'n'Roll / Teen Idol
Страна-производитель диска: UK
Год издания: 1961/1963 (2000)
Издатель (лейбл): Demon-Westside
Номер по каталогу: WESA 839
Страна: UK
Аудиокодек: FLAC (*.flac)
Тип рипа: image+.cue
Битрейт аудио: lossless
Продолжительность: 72:00
Источник (релизер): AUDELAS KINGDOM
Наличие сканов в содержимом раздачи: да
01. Voodoo Woman
02. Can't You Hear The Beat Of A Broken Heart
03. Fabulous
04. Thunder And Lightning
05. Oh Lover
06. I Don't Care If The Sun Don't Shine
07. (I Love You) For Sentimental Reason
08. That's A Woman
09. Walk With Me Angel
10. That's How To Make Love
11. Magic Of True Love
12. It's Goodbye Then
13. I'm Gonna Let My Hair Down
14. On Lover's Hill
15. Sweet And Tender Romance
16. Johnny My Johnny
17. That's The Way It Is
18. Too Many Late Nights
19. Lovers' Lane
20. Funny Man
21. Another Man
22. Buona Sera
23. A Man Is Not Supposed To Cry
24. How Will It End?

Exact Audio Copy V1.0 beta 2 from 29. April 2011

EAC extraction logfile from 28. October 2012, 15:19

John Leyton / John Leyton - The Two Side Of... / Always Yours

Used drive : _NEC DVD_RW ND-3550A Adapter: 1 ID: 0

Read mode : SecureUtilize accurate stream : YesDefeat audio cache : YesMake use of C2 pointers : No

Read offset correction : 48Overread into Lead-In and Lead-Out : NoFill up missing offset samples with silence : YesDelete leading and trailing silent blocks : NoNull samples used in CRC calculations : YesUsed interface : Native Win32 interface for Win NT & 2000

Used output format : User Defined EncoderSelected bitrate : 768 kBit/sQuality : HighAdd ID3 tag : NoCommand line compressor : C:\Program Files\Exact Audio Copy\FLAC\FLAC.EXEAdditional command line options : -6 -V -T "ARTIST=%artist%" -T "TITLE=%title%" -T "ALBUM=%albumtitle%" -T "DATE=%year%" -T "TRACKNUMBER=%tracknr%" -T "GENRE=%genre%" -T "COMMENT=%comment%" -T "BAND=%albuminterpret%" -T "COMPOSER=%composer%" %haslyrics%--ta

TOC of the extracted CD

Track | Start | Length | Start sector | End sector --------------------------------------------------------- 1 | 0:00.00 | 2:04.40 | 0 | 9339 2 | 2:04.40 | 1:52.08 | 9340 | 17747 3 | 3:56.48 | 2:08.71 | 17748 | 27418 4 | 6:05.44 | 2:08.54 | 27419 | 37072 5 | 8:14.23 | 2:08.54 | 37073 | 46726 6 | 10:23.02 | 2:13.72 | 46727 | 56773 7 | 12:36.74 | 3:05.44 | 56774 | 70692 8 | 15:42.43 | 2:36.55 | 70693 | 82447 9 | 18:19.23 | 3:19.34 | 82448 | 97406 10 | 21:38.57 | 2:12.18 | 97407 | 107324 11 | 23:51.00 | 2:43.03 | 107325 | 119552 12 | 26:34.03 | 3:08.63 | 119553 | 133715 13 | 29:42.66 | 2:05.60 | 133716 | 143150 14 | 31:48.51 | 2:22.33 | 143151 | 153833 15 | 34:11.09 | 2:12.39 | 153834 | 163772 16 | 36:23.48 | 2:39.54 | 163773 | 175751 17 | 39:03.27 | 2:02.59 | 175752 | 184960 18 | 41:06.11 | 1:49.53 | 184961 | 193188 19 | 42:55.64 | 1:53.52 | 193189 | 201715 20 | 44:49.41 | 1:44.38 | 201716 | 209553 21 | 46:34.04 | 2:05.43 | 209554 | 218971 22 | 48:39.47 | 2:50.43 | 218972 | 231764 23 | 51:30.15 | 3:02.62 | 231765 | 245476 24 | 54:33.02 | 1:59.73 | 245477 | 254474

Range status and errors

Selected range

Filename D:\Muzika\John Leyton - The Two Side Of... ; Always Yours (1961;1963)\John Leyton - John Leyton - The Two Side Of... , Always Yours.wav

Peak level 99.8 % Extraction speed 5.1 X Range quality 100.0 % Test CRC 8D41FB59 Copy CRC 8D41FB59 Copy OK

No errors occurred

AccurateRip summary

Track 1 not present in databaseTrack 2 not present in databaseTrack 3 not present in databaseTrack 4 not present in databaseTrack 5 not present in databaseTrack 6 not present in databaseTrack 7 not present in databaseTrack 8 not present in databaseTrack 9 not present in databaseTrack 10 not present in databaseTrack 11 not present in databaseTrack 12 not present in databaseTrack 13 not present in databaseTrack 14 not present in databaseTrack 15 not present in databaseTrack 16 not present in databaseTrack 17 not present in databaseTrack 18 not present in databaseTrack 19 not present in databaseTrack 20 not present in databaseTrack 21 not present in databaseTrack 22 not present in databaseTrack 23 not present in databaseTrack 24 not present in database

None of the tracks are present in the AccurateRip database

End of status report

==== Log checksum 7712E5D715DC90B3C440745E8C3877C26A3C0242FD6CD7B1D0B9161C3E1E5443 ====


Трекер:  [ 29-Окт-2012 08:23 ]

  

Скачать .torrent

Размер .torrent файла 11 KB


Размер: 264 MB
Хэш (hash) релиза: 8eebe76605caf164397635e39622d08a3d57785d

Еще никто не оставлял запись к записи скачать торрент John Leyton - Two Sides Of John Leyton Always Yours . Будь первым!

!Обратная связь