Скачать через торрент музыку S.Y.P.H. - Harbeitslose - бесплатно без регистрации torrent

Если у вас наблюдаются проблемы со скриншотами, переходом по ссылками, скачиванием торрентов - проблемы в блокировщике рекламы AdBlock. #хорошегоДня!


Статистика раздачи
Размер:  452 MB   |    Зарегистрирован:  5 лет   |    .torrent скачан:  12 раз   |   
Раздают:  1  
   
Загрузка...
 
Автор Сообщение

_N_

avatar _N_


S.Y.P.H. / Harbeitslose

Жанр: Kraut Rock
Страна-производитель диска: Germany
Год издания: (1981)2001
Издатель (лейбл): Fuenfundvierzig
Номер по каталогу: Fuenfundvierzig 128
Страна: Germany
Аудиокодек: FLAC (*.flac)
Тип рипа: tracks+.cue
Битрейт аудио: lossless
Продолжительность: 01:13:07.
Источник (релизер): clustert
Наличие сканов в содержимом раздачи: да
Треклист:
01 Slumberland
02 Hörzu
03 Dizxko
04 Wilder Winter
05 Ich glaub die Liebe
06 Durch den Herbst
07 Der Spring
08 Knudelblues I
09 Ich brauch dich
10 Mamma Mia Mär
11 Willkak
12 Altbier in Alphaville
13 Der Bauer im Parkdeck
14 Falsche Freunde
15 Alte Freundin
16 Knudelblues II
17 Traumraum
18 Bekenntnisse eines Knüppelträgers
19 Masolinchen
20 Herrlich Anonym
21 Clean City
22 Hugo Hugh
23 Mit das Leben klar
24 Wo ist der Ausgang
25 Maschine von Beruf
Exact Audio Copy V1.0 beta 3 from 29. August 2011

Отчёт EAC об извлечении, выполненном 28. октября 2012, 16:11

S.Y.P.H. / Harbeitslose

Дисковод: ASUS DRW-1814BLT Adapter: 4 ID: 0

Режим чтения : ДостоверностьИспользование точного потока : ДаОтключение кэша аудио : ДаИспользование указателей C2 : Нет

Коррекция смещения при чтении : 6Способность читать области Lead-in и Lead-out : НетЗаполнение пропущенных сэмплов тишиной : ДаУдаление блоков с тишиной в начале и конце : НетПри вычислениях CRC использовались нулевые сэмплы : ДаИнтерфейс : Встроенный Win32-интерфейс для Win NT/2000Обработка зазоров : Добавлено к предыдущему треку

Выходной формат : Пользовательский кодировщикВыбранный битрейт : 128 kBit/sКачество : НизкийДобавление ID3-тега : НетУтилита сжатия : C:\Program Files\Exact Audio Copy\Flac\flac.exeДополнительные параметры : -V -8 -T "Genre=%genre%" -T "Artist=%artist%" -T "Title=%title%" -T "Album=%albumtitle%" -T "Date=%year%" -T "Tracknumber=%tracknr%" -T "Comment=EAC1.0b2 FLAC -8" %source%

TOC извлечённого CD

Трек | Старт | Длительность | Начальный сектор | Конечный сектор --------------------------------------------------------------------- 1 | 0:00.00 | 1:23.57 | 0 | 6281 2 | 1:23.57 | 5:13.48 | 6282 | 29804 3 | 6:37.30 | 5:34.72 | 29805 | 54926 4 | 12:12.27 | 8:24.60 | 54927 | 92786 5 | 20:37.12 | 4:18.10 | 92787 | 112146 6 | 24:55.22 | 3:29.30 | 112147 | 127851 7 | 28:24.52 | 3:01.10 | 127852 | 141436 8 | 31:25.62 | 1:26.45 | 141437 | 147931 9 | 32:52.32 | 4:03.48 | 147932 | 166204 10 | 36:56.05 | 6:53.27 | 166205 | 197206 11 | 43:49.32 | 7:22.45 | 197207 | 230401 12 | 51:12.02 | 0:31.53 | 230402 | 232779 13 | 51:43.55 | 2:08.42 | 232780 | 242421 14 | 53:52.22 | 2:53.53 | 242422 | 255449 15 | 56:46.00 | 1:33.62 | 255450 | 262486 16 | 58:19.62 | 0:25.28 | 262487 | 264389 17 | 58:45.15 | 3:27.05 | 264390 | 279919 18 | 62:12.20 | 1:13.22 | 279920 | 285416 19 | 63:25.42 | 0:37.13 | 285417 | 288204 20 | 64:02.55 | 1:00.62 | 288205 | 292766 21 | 65:03.42 | 0:17.23 | 292767 | 294064 22 | 65:20.65 | 0:54.55 | 294065 | 298169 23 | 66:15.45 | 1:38.45 | 298170 | 305564 24 | 67:54.15 | 2:35.65 | 305565 | 317254 25 | 70:30.05 | 2:37.12 | 317255 | 329041

Трек 1

Имя файла R:\Раздача\S.Y.P.H. - Harbeitslose - 1981\01 Slumberland I.wav

Длина предзазора 0:00:02.00

Пиковый уровень 79.9 % Скорость извлечения 4.2 X Качество трека 100.0 % CRC теста D876EDA4 CRC копии D876EDA4 Копирование... OK

Трек 2

Имя файла R:\Раздача\S.Y.P.H. - Harbeitslose - 1981\02 Hörzu.wav

Пиковый уровень 93.9 % Скорость извлечения 6.0 X Качество трека 100.0 % CRC теста 12EDE6AC CRC копии 12EDE6AC Копирование... OK

Трек 3

Имя файла R:\Раздача\S.Y.P.H. - Harbeitslose - 1981\03 Dizxko.wav

Пиковый уровень 99.4 % Скорость извлечения 6.1 X Качество трека 99.9 % CRC теста AE0643EA CRC копии AE0643EA Копирование... OK

Трек 4

Имя файла R:\Раздача\S.Y.P.H. - Harbeitslose - 1981\04 Wilder Winter.wav

Пиковый уровень 98.7 % Скорость извлечения 7.7 X Качество трека 100.0 % CRC теста 084C998E CRC копии 084C998E Копирование... OK

Трек 5

Имя файла R:\Раздача\S.Y.P.H. - Harbeitslose - 1981\05 Ich glaub die Liebe.wav

Пиковый уровень 94.6 % Скорость извлечения 7.8 X Качество трека 100.0 % CRC теста C11B7944 CRC копии C11B7944 Копирование... OK

Трек 6

Имя файла R:\Раздача\S.Y.P.H. - Harbeitslose - 1981\06 Durch den Herbst.wav

Пиковый уровень 98.2 % Скорость извлечения 7.9 X Качество трека 100.0 % CRC теста 22D4F3B6 CRC копии 22D4F3B6 Копирование... OK

Трек 7

Имя файла R:\Раздача\S.Y.P.H. - Harbeitslose - 1981\07 Der Spring.wav

Пиковый уровень 99.9 % Скорость извлечения 8.0 X Качество трека 100.0 % CRC теста 373ECD4A CRC копии 373ECD4A Копирование... OK

Трек 8

Имя файла R:\Раздача\S.Y.P.H. - Harbeitslose - 1981\08 Knudelblues I.wav

Пиковый уровень 77.2 % Скорость извлечения 6.8 X Качество трека 100.0 % CRC теста 574207EB CRC копии 574207EB Копирование... OK

Трек 9

Имя файла R:\Раздача\S.Y.P.H. - Harbeitslose - 1981\09 Ich brauch dich.wav

Пиковый уровень 90.4 % Скорость извлечения 8.7 X Качество трека 100.0 % CRC теста 6F433F5B CRC копии 6F433F5B Копирование... OK

Трек 10

Имя файла R:\Раздача\S.Y.P.H. - Harbeitslose - 1981\10 Mamma Mia Mär.wav

Пиковый уровень 45.2 % Скорость извлечения 9.6 X Качество трека 100.0 % CRC теста C90A93AE CRC копии C90A93AE Копирование... OK

Трек 11

Имя файла R:\Раздача\S.Y.P.H. - Harbeitslose - 1981\11 Willkak.wav

Пиковый уровень 99.9 % Скорость извлечения 10.3 X Качество трека 100.0 % CRC теста C335C8ED CRC копии C335C8ED Копирование... OK

Трек 12

Имя файла R:\Раздача\S.Y.P.H. - Harbeitslose - 1981\12 Altbier in Alphaville.wav

Пиковый уровень 40.2 % Скорость извлечения 5.1 X Качество трека 100.0 % CRC теста 403ABDC1 CRC копии 403ABDC1 Копирование... OK

Трек 13

Имя файла R:\Раздача\S.Y.P.H. - Harbeitslose - 1981\13 Der Bauer im Parkdeck.wav

Пиковый уровень 83.0 % Скорость извлечения 8.8 X Качество трека 100.0 % CRC теста 06862DB5 CRC копии 06862DB5 Копирование... OK

Трек 14

Имя файла R:\Раздача\S.Y.P.H. - Harbeitslose - 1981\14 Falsche Freunde.wav

Пиковый уровень 91.6 % Скорость извлечения 9.5 X Качество трека 100.0 % CRC теста BBDB226E CRC копии BBDB226E Копирование... OK

Трек 15

Имя файла R:\Раздача\S.Y.P.H. - Harbeitslose - 1981\15 Alte Freundin.wav

Пиковый уровень 78.3 % Скорость извлечения 8.2 X Качество трека 100.0 % CRC теста E32420C6 CRC копии E32420C6 Копирование... OK

Трек 16

Имя файла R:\Раздача\S.Y.P.H. - Harbeitslose - 1981\16 Knudelblues II.wav

Пиковый уровень 50.3 % Скорость извлечения 4.6 X Качество трека 100.0 % CRC теста FBBD4F9A CRC копии FBBD4F9A Копирование... OK

Трек 17

Имя файла R:\Раздача\S.Y.P.H. - Harbeitslose - 1981\17 Traumraum.wav

Пиковый уровень 99.8 % Скорость извлечения 10.1 X Качество трека 100.0 % CRC теста 659E7E04 CRC копии 659E7E04 Копирование... OK

Трек 18

Имя файла R:\Раздача\S.Y.P.H. - Harbeitslose - 1981\18 Bekenntnisse eines Knüppelträgers.wav

Пиковый уровень 98.8 % Скорость извлечения 8.1 X Качество трека 100.0 % CRC теста CF087DAD CRC копии CF087DAD Копирование... OK

Трек 19

Имя файла R:\Раздача\S.Y.P.H. - Harbeitslose - 1981\19 Masolinchen.wav

Пиковый уровень 82.3 % Скорость извлечения 3.9 X Качество трека 99.7 % CRC теста 8EDE7E84 CRC копии 8EDE7E84 Копирование... OK

Трек 20

Имя файла R:\Раздача\S.Y.P.H. - Harbeitslose - 1981\20 Herrlich Anonym.wav

Пиковый уровень 100.0 % Скорость извлечения 7.4 X Качество трека 100.0 % CRC теста 4417C66F CRC копии 4417C66F Копирование... OK

Трек 21

Имя файла R:\Раздача\S.Y.P.H. - Harbeitslose - 1981\21 Clean City.wav

Пиковый уровень 47.6 % Скорость извлечения 3.7 X Качество трека 100.0 % CRC теста 4941D866 CRC копии 4941D866 Копирование... OK

Трек 22

Имя файла R:\Раздача\S.Y.P.H. - Harbeitslose - 1981\22 Hugo Hugh.wav

Пиковый уровень 99.8 % Скорость извлечения 5.1 X Качество трека 99.8 % CRC теста 2C6F46EE CRC копии 2C6F46EE Копирование... OK

Трек 23

Имя файла R:\Раздача\S.Y.P.H. - Harbeitslose - 1981\23 Mit das Leben klar.wav

Пиковый уровень 94.2 % Скорость извлечения 7.0 X Качество трека 99.8 % CRC теста 6446516C CRC копии 6446516C Копирование... OK

Трек 24

Имя файла R:\Раздача\S.Y.P.H. - Harbeitslose - 1981\24 Wo ist der Ausgang.wav

Пиковый уровень 88.2 % Скорость извлечения 10.1 X Качество трека 100.0 % CRC теста 809FAA15 CRC копии 809FAA15 Копирование... OK

Трек 25

Имя файла R:\Раздача\S.Y.P.H. - Harbeitslose - 1981\25 Maschine von Beruf.wav

Пиковый уровень 99.8 % Скорость извлечения 10.2 X Качество трека 100.0 % CRC теста 952CE110 CRC копии 952CE110 Копирование... OK

Ошибок не произошло

Конец отчёта

==== Контрольная сумма отчёта 8DA0122DDA0655A3C5830EF93E700225B23B112C4976C63385A9F03F966799A8 ====
REM GENRE "Progressive Rock"

REM DATE 1981

REM DISCID 84112319

REM COMMENT "ExactAudioCopy v1.0b3"

PERFORMER "S.Y.P.H."

TITLE "Harbeitslose"

FILE "01 Slumberland I.wav" WAVE

TRACK 01 AUDIO

TITLE "Slumberland I"

PERFORMER "S.Y.P.H."

ISRC <c[168212801

INDEX 01 00:00:00

FILE "02 Horzu.wav" WAVE

TRACK 02 AUDIO

TITLE "Horzu"

PERFORMER "S.Y.P.H."

ISRC <c[168212802

INDEX 01 00:00:00

FILE "03 Dizxko.wav" WAVE

TRACK 03 AUDIO

TITLE "Dizxko"

PERFORMER "S.Y.P.H."

ISRC <c[168212803

INDEX 01 00:00:00

FILE "04 Wilder Winter.wav" WAVE

TRACK 04 AUDIO

TITLE "Wilder Winter"

PERFORMER "S.Y.P.H."

ISRC <c[168212804

INDEX 01 00:00:00

FILE "05 Ich glaub die Liebe.wav" WAVE

TRACK 05 AUDIO

TITLE "Ich glaub die Liebe"

PERFORMER "S.Y.P.H."

ISRC <c[168212805

INDEX 01 00:00:00

FILE "06 Durch den Herbst.wav" WAVE

TRACK 06 AUDIO

TITLE "Durch den Herbst"

PERFORMER "S.Y.P.H."

ISRC <c[168212806

INDEX 01 00:00:00

FILE "07 Der Spring.wav" WAVE

TRACK 07 AUDIO

TITLE "Der Spring"

PERFORMER "S.Y.P.H."

ISRC <c[168212807

INDEX 01 00:00:00

FILE "08 Knudelblues I.wav" WAVE

TRACK 08 AUDIO

TITLE "Knudelblues I"

PERFORMER "S.Y.P.H."

ISRC <c[168212808

INDEX 01 00:00:00

FILE "09 Ich brauch dich.wav" WAVE

TRACK 09 AUDIO

TITLE "Ich brauch dich"

PERFORMER "S.Y.P.H."

ISRC <c[168212809

INDEX 01 00:00:00

FILE "10 Mamma Mia Mar.wav" WAVE

TRACK 10 AUDIO

TITLE "Mamma Mia Mar"

PERFORMER "S.Y.P.H."

ISRC <c[168212810

INDEX 01 00:00:00

FILE "11 Willkak.wav" WAVE

TRACK 11 AUDIO

TITLE "Willkak"

PERFORMER "S.Y.P.H."

ISRC <c[168212811

INDEX 01 00:00:00

FILE "12 Altbier in Alphaville.wav" WAVE

TRACK 12 AUDIO

TITLE "Altbier in Alphaville"

PERFORMER "S.Y.P.H."

ISRC <c[168212812

INDEX 01 00:00:00

FILE "13 Der Bauer im Parkdeck.wav" WAVE

TRACK 13 AUDIO

TITLE "Der Bauer im Parkdeck"

PERFORMER "S.Y.P.H."

ISRC <c[168212813

INDEX 01 00:00:00

FILE "14 Falsche Freunde.wav" WAVE

TRACK 14 AUDIO

TITLE "Falsche Freunde"

PERFORMER "S.Y.P.H."

ISRC <c[168212814

INDEX 01 00:00:00

FILE "15 Alte Freundin.wav" WAVE

TRACK 15 AUDIO

TITLE "Alte Freundin"

PERFORMER "S.Y.P.H."

ISRC <c[168212815

INDEX 01 00:00:00

FILE "16 Knudelblues II.wav" WAVE

TRACK 16 AUDIO

TITLE "Knudelblues II"

PERFORMER "S.Y.P.H."

ISRC <c[168212816

INDEX 01 00:00:00

FILE "17 Traumraum.wav" WAVE

TRACK 17 AUDIO

TITLE "Traumraum"

PERFORMER "S.Y.P.H."

ISRC <c[168212817

INDEX 01 00:00:00

FILE "18 Bekenntnisse eines Knuppeltragers.wav" WAVE

TRACK 18 AUDIO

TITLE "Bekenntnisse eines Knuppeltragers"

PERFORMER "S.Y.P.H."

ISRC <c[168212818

INDEX 01 00:00:00

FILE "19 Masolinchen.wav" WAVE

TRACK 19 AUDIO

TITLE "Masolinchen"

PERFORMER "S.Y.P.H."

ISRC <c[168212819

INDEX 01 00:00:00

FILE "20 Herrlich Anonym.wav" WAVE

TRACK 20 AUDIO

TITLE "Herrlich Anonym"

PERFORMER "S.Y.P.H."

ISRC <c[168212820

INDEX 01 00:00:00

FILE "21 Clean City.wav" WAVE

TRACK 21 AUDIO

TITLE "Clean City"

PERFORMER "S.Y.P.H."

ISRC <c[168212820

INDEX 01 00:00:00

FILE "22 Hugo Hugh.wav" WAVE

TRACK 22 AUDIO

TITLE "Hugo Hugh"

PERFORMER "S.Y.P.H."

ISRC <c[168212822

INDEX 01 00:00:00

FILE "23 Mit das Leben klar.wav" WAVE

TRACK 23 AUDIO

TITLE "Mit das Leben klar"

PERFORMER "S.Y.P.H."

ISRC <c[168212822

INDEX 01 00:00:00

FILE "24 Wo ist der Ausgang.wav" WAVE

TRACK 24 AUDIO

TITLE "Wo ist der Ausgang"

PERFORMER "S.Y.P.H."

ISRC <c[168212824

INDEX 01 00:00:00

FILE "25 Maschine von Beruf.wav" WAVE

TRACK 25 AUDIO

TITLE "Maschine von Beruf"

PERFORMER "S.Y.P.H."

ISRC <c[168212825

INDEX 01 00:00:00


Трекер:  [ 29-Окт-2012 06:54 ]

  

Скачать .torrent

Размер .torrent файла 19 KB


Размер: 452 MB
Хэш (hash) релиза: 462913f9b4af5b9adcc670f6298f192d6f6449f8

Еще никто не оставлял запись к записи скачать торрент S.Y.P.H. - Harbeitslose - . Будь первым!

!Обратная связь