Скачать через торрент музыку Earl King - Earls Pearls The Very Best Of Earl King бесплатно без регистрации torrent

Если у вас наблюдаются проблемы со скриншотами, переходом по ссылками, скачиванием торрентов - проблемы в блокировщике рекламы AdBlock. #хорошегоДня!


Статистика раздачи
Размер:  202 MB   |    Зарегистрирован:  4 года 11 месяцев   |    .torrent скачан:  27 раз   |   
Раздают:  1  
   
Загрузка...
 
Автор Сообщение

_N_

avatar _N_


Earl King / Earl's Pearls : The Very Best Of Earl King 1955 - 1960

Жанр: Rock'n'Roll / New Orleans R&B
Страна-производитель диска: England
Год издания: 1997
Издатель (лейбл): Westside Records
Номер по каталогу: WESM 520
Страна: USA
Аудиокодек: FLAC (*.flac)
Тип рипа: image+.cue
Битрейт аудио: lossless
Продолжительность: 74:07
Источник (релизер): AUDELAS KINGDOM
Наличие сканов в содержимом раздачи: да
01. Those Lonely, Lonely Nights
02. Baby You Can Get Your Gun
03. Everybody Got To Cry
04. I'm Packing Up
05. Nobody Cares
06. Little Girl
07. My Love Is Strong
08. It Must Have Been Love
09. I'll Take You Back Home
10. Mother Told Me Not To Go
11. Is Everything Alright
12. Those Lonely, Lonely Feelings
13. You Can Fly High
14. Well'O Well'O Well'O Baby
15. I'll Never Get Tired
16. A Weary Silent Night
17. Everybody's Carried Away
18. Buddy It's Time To Go
19. Don't You Know You're Wrong
20. Darling Honey Angel Child
21. I Can't Help Myself
22. I Met A Stranger
23. Let The Good Times Roll
24. A Mother's Love
25. Baby Hurry On Home

Exact Audio Copy V1.0 beta 2 from 29. April 2011

EAC extraction logfile from 27. October 2012, 19:30

Earl King / Earl's Pearls-The Very Best Of Earl King 1955 - 1960

Used drive : _NEC DVD_RW ND-3550A Adapter: 1 ID: 0

Read mode : SecureUtilize accurate stream : YesDefeat audio cache : YesMake use of C2 pointers : No

Read offset correction : 48Overread into Lead-In and Lead-Out : NoFill up missing offset samples with silence : YesDelete leading and trailing silent blocks : NoNull samples used in CRC calculations : YesUsed interface : Native Win32 interface for Win NT & 2000

Used output format : User Defined EncoderSelected bitrate : 768 kBit/sQuality : HighAdd ID3 tag : NoCommand line compressor : C:\Program Files\Exact Audio Copy\FLAC\FLAC.EXEAdditional command line options : -6 -V -T "ARTIST=%artist%" -T "TITLE=%title%" -T "ALBUM=%albumtitle%" -T "DATE=%year%" -T "TRACKNUMBER=%tracknr%" -T "GENRE=%genre%" -T "COMMENT=%comment%" -T "BAND=%albuminterpret%" -T "COMPOSER=%composer%" %haslyrics%--ta

TOC of the extracted CD

Track | Start | Length | Start sector | End sector --------------------------------------------------------- 1 | 0:00.00 | 2:26.00 | 0 | 10949 2 | 2:26.00 | 2:08.47 | 10950 | 20596 3 | 4:34.47 | 2:48.35 | 20597 | 33231 4 | 7:23.07 | 2:35.05 | 33232 | 44861 5 | 9:58.12 | 2:35.65 | 44862 | 56551 6 | 12:34.02 | 2:19.20 | 56552 | 66996 7 | 14:53.22 | 2:28.33 | 66997 | 78129 8 | 17:21.55 | 2:36.07 | 78130 | 89836 9 | 19:57.62 | 2:55.48 | 89837 | 103009 10 | 22:53.35 | 2:21.72 | 103010 | 113656 11 | 25:15.32 | 2:51.73 | 113657 | 126554 12 | 28:07.30 | 2:38.22 | 126555 | 138426 13 | 30:45.52 | 2:15.70 | 138427 | 148621 14 | 33:01.47 | 2:38.50 | 148622 | 160521 15 | 35:40.22 | 2:23.35 | 160522 | 171281 16 | 38:03.57 | 2:37.10 | 171282 | 183066 17 | 40:40.67 | 2:15.43 | 183067 | 193234 18 | 42:56.35 | 2:16.47 | 193235 | 203481 19 | 45:13.07 | 2:33.33 | 203482 | 214989 20 | 47:46.40 | 2:23.55 | 214990 | 225769 21 | 50:10.20 | 2:27.37 | 225770 | 236831 22 | 52:37.57 | 2:38.55 | 236832 | 248736 23 | 55:16.37 | 2:23.03 | 248737 | 259464 24 | 57:39.40 | 2:40.30 | 259465 | 271494 25 | 60:19.70 | 1:07.45 | 271495 | 276564

Range status and errors

Selected range

Filename D:\Muzika\Earl King - Earl's Pearls (The Very Best Of Earl King 1955 - 1960) - (1997)\Earl King - Earl's Pearls-The Very Best Of Earl King 1955 - 1960.wav

Peak level 100.0 % Extraction speed 5.2 X Range quality 99.9 % Test CRC 4DB293A3 Copy CRC 4DB293A3 Copy OK

No errors occurred

AccurateRip summary

Track 1 accurately ripped (confidence 2) [301ECA2C] (AR v1)Track 2 accurately ripped (confidence 2) [EC87FE96] (AR v1)Track 3 accurately ripped (confidence 2) [B2AC4E19] (AR v1)Track 4 accurately ripped (confidence 2) [AF5FF6BE] (AR v1)Track 5 accurately ripped (confidence 2) [669FAC21] (AR v1)Track 6 accurately ripped (confidence 2) [1A7605FE] (AR v1)Track 7 accurately ripped (confidence 2) [545A24EB] (AR v1)Track 8 accurately ripped (confidence 2) [07469252] (AR v1)Track 9 accurately ripped (confidence 2) [D7EAAE48] (AR v1)Track 10 accurately ripped (confidence 2) [6A40A41E] (AR v1)Track 11 accurately ripped (confidence 2) [C5BFCD35] (AR v1)Track 12 accurately ripped (confidence 2) [42730A08] (AR v1)Track 13 accurately ripped (confidence 2) [7E67C9EC] (AR v1)Track 14 accurately ripped (confidence 2) [8F92A1C9] (AR v1)Track 15 accurately ripped (confidence 2) [A73FCB59] (AR v1)Track 16 accurately ripped (confidence 2) [26FD780B] (AR v1)Track 17 accurately ripped (confidence 2) [75BFB3E9] (AR v1)Track 18 accurately ripped (confidence 2) [5D2ED592] (AR v1)Track 19 accurately ripped (confidence 2) [4723A44A] (AR v1)Track 20 accurately ripped (confidence 2) [C074590B] (AR v1)Track 21 accurately ripped (confidence 2) [58C118FA] (AR v1)Track 22 accurately ripped (confidence 2) [9E97ABB2] (AR v1)Track 23 accurately ripped (confidence 2) [28D8FCCB] (AR v1)Track 24 accurately ripped (confidence 2) [C6E3BF0D] (AR v1)Track 25 accurately ripped (confidence 2) [90D2F228] (AR v1)

All tracks accurately ripped

End of status report

==== Log checksum 96FF3C5DB6CD766B396FDA57118DF169D6334894D1C784685EB0156121DEC824 ====


Трекер:  [ 29-Окт-2012 08:25 ]

  

Скачать .torrent

Размер .torrent файла 16 KB


Размер: 202 MB
Хэш (hash) релиза: 025a8b05a7c1e9549ff19f5be95dac1aeef09513

Еще никто не оставлял запись к записи скачать торрент Earl King - Earls Pearls The Very Best Of Earl King . Будь первым!

!Обратная связь