Скачать через торрент музыку Phish - Junta бесплатно без регистрации torrent

Если у вас наблюдаются проблемы со скриншотами, переходом по ссылками, скачиванием торрентов - проблемы в блокировщике рекламы AdBlock. #хорошегоДня!


Статистика раздачи
Размер:  973 MB   |    Зарегистрирован:  4 года 9 месяцев   |    .torrent скачан:  9 раз   |   
Раздают:  1  
   
Загрузка...
 
Автор Сообщение

_N_

avatar _N_


Phish / Junta (2CD)

Жанр: Progressive/Psychedelic/Jam Band
Страна-производитель диска: USA
Год издания: 1988
Издатель (лейбл): ELEKTRA
Номер по каталогу: 61413-2
Страна: USA
Аудиокодек: WavPack (*.wv)
Тип рипа: iso.wv
Битрейт аудио: lossless
Продолжительность: 62:27+60:00
Источник (релизер): tatuk (с полочки в шкафчике)
Наличие сканов в содержимом раздачи: да

Доп. информация: Добавляю ещё один диск Phish к дискографии - самый первый. И самый имхо лучший. И самый, наверное, прогрессивный. И наименее джемовый.
Вообще на диске всего хватает. Есть чиста прогрессив - Fluffhead, You Enjoy Myself, David Bowie, Divided Sky; есть достаточно простые вещи - Fee, Esther, Golgi Apparatus, Dinner and a Movie, Contact, - хотя всё равно неплохо.
Скажу главное: если вы хотите иметь единственный диск Phish в своей коллекции - это должна быть "Хунта".
Треклист:
1. Fee (5:23)
2. You enjoy myself (9:47)
3. Esther (9:21)
4. Golgi apparatus (4:35)
5. Foam (6:50)
6. Dinner and a movie (3:42)
7. The divided sky (11:50)
8. David Bowie (10:59)
Exact Audio Copy V1.0 beta 3 from 29. August 2011

EAC extraction logfile from 27. October 2012, 1:00

Phish / Junta (CD1)

Used drive : SONY DVD RW DRU-830A Adapter: 1 ID: 0

Read mode : SecureUtilize accurate stream : YesDefeat audio cache : YesMake use of C2 pointers : No

Read offset correction : 6Overread into Lead-In and Lead-Out : NoFill up missing offset samples with silence : YesDelete leading and trailing silent blocks : NoNull samples used in CRC calculations : YesUsed interface : Native Win32 interface for Win NT & 2000

Used output format : User Defined EncoderSelected bitrate : 768 kBit/sQuality : HighAdd ID3 tag : NoCommand line compressor : C:\Program Files (x86)\Exact Audio Copy\wavpack\wavpack.exeAdditional command line options : -hlm %source%

TOC of the extracted CD

Track | Start | Length | Start sector | End sector --------------------------------------------------------- 1 | 0:00.33 | 5:24.55 | 33 | 24387 2 | 5:25.13 | 9:50.00 | 24388 | 68637 3 | 15:15.13 | 9:24.00 | 68638 | 110937 4 | 24:39.13 | 4:39.50 | 110938 | 131912 5 | 29:18.63 | 6:50.50 | 131913 | 162712 6 | 36:09.38 | 3:42.60 | 162713 | 179422 7 | 39:52.23 | 11:56.57 | 179423 | 233179 8 | 51:49.05 | 10:59.20 | 233180 | 282624

Range status and errors

Selected range

Filename D:\_NL+_by_TATUK\WV.ISO9\Phish - Junta (CD1).wav

Peak level 97.3 % Extraction speed 7.8 X Range quality 99.9 % Copy CRC 4A769725 Copy OK

No errors occurred

AccurateRip summary

Track 1 accurately ripped (confidence 6) [6517C86B] (AR v2)Track 2 accurately ripped (confidence 6) [01921211] (AR v2)Track 3 accurately ripped (confidence 6) [54D978B8] (AR v2)Track 4 accurately ripped (confidence 6) [9305D901] (AR v2)Track 5 accurately ripped (confidence 6) [A2EA5F89] (AR v2)Track 6 accurately ripped (confidence 6) [9D91C607] (AR v2)Track 7 accurately ripped (confidence 6) [05423C9B] (AR v2)Track 8 accurately ripped (confidence 6) [6A19492F] (AR v2)

All tracks accurately ripped

End of status report

==== Log checksum 28615E9F5E336C25E5C1EF50FF72B00485F33564BBAEA01881710C2B757E3B9E ====
REM GENRE "Progressive Rock"REM DATE 1988REM DISCID 5E0EB808REM COMMENT "ExactAudioCopy v1.0b3"PERFORMER "Phish"TITLE "Junta (CD1)"FILE "Phish - Junta (CD1) 1988.wv" WAVE TRACK 01 AUDIO TITLE "Fee" PERFORMER "Phish" INDEX 00 00:00:00 INDEX 01 00:00:33 TRACK 02 AUDIO TITLE "You Enjoy Myself" PERFORMER "Phish" INDEX 00 05:23:38 INDEX 01 05:25:13 TRACK 03 AUDIO TITLE "Esther" PERFORMER "Phish" INDEX 00 15:14:05 INDEX 01 15:15:13 TRACK 04 AUDIO TITLE "Golgi Apparatus" PERFORMER "Phish" INDEX 00 24:34:68 INDEX 01 24:39:13 TRACK 05 AUDIO TITLE "Foam" PERFORMER "Phish" INDEX 00 29:14:40 INDEX 01 29:18:63 TRACK 06 AUDIO TITLE "Dinner And A Movie" PERFORMER "Phish" INDEX 00 36:08:58 INDEX 01 36:09:38 TRACK 07 AUDIO TITLE "The Divided Sky" PERFORMER "Phish" INDEX 00 39:51:38 INDEX 01 39:52:23 TRACK 08 AUDIO TITLE "David Bowie" PERFORMER "Phish" INDEX 00 51:48:08 INDEX 01 51:49:05
-----------------------

DON'T MODIFY THIS FILE

-----------------------

PERFORMER: auCDtect Task Manager, ver. 1.5.1RC6 build 1.5.1.7Copyright (c) 2008-2010 y-soft. All rights reservedhttp://y-soft.org

ANALYZER: auCDtect: CD records authenticity detector, version 0.8.2Copyright (c) 2004 Oleg Berngardt. All rights reserved.Copyright (c) 2004 Alexander Djourik. All rights reserved.

FILE: Phish - Junta (CD1).wv Size: 422131862 Hash: 0D7B377DD3222754BEDF9C24C08803D7 Accuracy: -m0 Conclusion: CDDA 100% Signature: 097623F7DEC1FFAEF7FC39C745FB8B81016D3338
ELEKTRA 61413-2.sig
Phish - Junta (CD1) 1988.log
Phish - Junta (CD1) 1988.wv
Phish - Junta (CD1) 1988.wv.cue
cd.jpg
back.jpg
front.jpg
checkers\matrix.jpg
checkers\Phish - Junta (CD1) 1988.accurip
checkers\Phish - Junta (CD1).wv.auCDtect.txt
checkers\spectral.jpg
checkers\wave.jpg
checkers\EAC.jpg
misc\info.txt
readme\[RUS] README No unpacking needed to play or burn this release.txt
readme\[ENG] README No unpacking needed to play or burn this release.txt
scans\back.png
scans\booklet1-10.png
scans\booklet2-3.png
scans\booklet4-5.png
scans\booklet6-7.png
scans\booklet8-9.png
scans\cd.png
scans\inlay.png
Треклист:
1. Fluffhead (3:24)
2. Fluff's travels (11:35)
3. Contact (6:42)
4. Union federal (25:31)
5. Sanity (5:22)
6. Icculus (4:24)
Exact Audio Copy V1.0 beta 3 from 29. August 2011

EAC extraction logfile from 27. October 2012, 4:54

Phish / Junta (CD2)

Used drive : SONY DVD RW DRU-830A Adapter: 1 ID: 0

Read mode : SecureUtilize accurate stream : YesDefeat audio cache : YesMake use of C2 pointers : No

Read offset correction : 6Overread into Lead-In and Lead-Out : NoFill up missing offset samples with silence : YesDelete leading and trailing silent blocks : NoNull samples used in CRC calculations : YesUsed interface : Native Win32 interface for Win NT & 2000

Used output format : User Defined EncoderSelected bitrate : 768 kBit/sQuality : HighAdd ID3 tag : NoCommand line compressor : C:\Program Files (x86)\Exact Audio Copy\wavpack\wavpack.exeAdditional command line options : -hlm %source%

TOC of the extracted CD

Track | Start | Length | Start sector | End sector --------------------------------------------------------- 1 | 0:00.32 | 3:24.28 | 32 | 15359 2 | 3:24.60 | 11:38.50 | 15360 | 67759 3 | 15:03.35 | 6:41.52 | 67760 | 97886 4 | 21:45.12 | 25:29.20 | 97887 | 212581 5 | 47:14.32 | 8:26.05 | 212582 | 250536 6 | 55:40.37 | 4:26.13 | 250537 | 270499

Range status and errors

Selected range

Filename D:\_NL+_by_TATUK\WV.ISO10\Phish - Junta (CD2).wav

Peak level 97.7 % Extraction speed 7.9 X Range quality 100.0 % Copy CRC B1FCD233 Copy OK

No errors occurred

AccurateRip summary

Track 1 accurately ripped (confidence 4) [CE86C02C] (AR v2)Track 2 accurately ripped (confidence 4) [EC35BB1E] (AR v2)Track 3 accurately ripped (confidence 4) [D0442C46] (AR v2)Track 4 accurately ripped (confidence 3) [DC7B8A07] (AR v2)Track 5 accurately ripped (confidence 4) [09008B5A] (AR v2)Track 6 accurately ripped (confidence 4) [EB1E2C01] (AR v2)

All tracks accurately ripped

End of status report

==== Log checksum 195E25648B0359A2ED7C8B457C0C6BF65C7F5B6EE5260D5B2E60B041140596D1 ====
REM GENRE "Progressive Rock"REM DATE 1988REM DISCID 420E1606REM COMMENT "ExactAudioCopy v1.0b3"PERFORMER "Phish"TITLE "Junta (CD2)"FILE "Phish - Junta (CD2) 1988.wv" WAVE TRACK 01 AUDIO TITLE "Fluffhead" PERFORMER "Phish" INDEX 00 00:00:00 INDEX 01 00:00:32 TRACK 02 AUDIO TITLE "Fluff's Travels" PERFORMER "Phish" INDEX 00 03:24:58 INDEX 01 03:24:60 TRACK 03 AUDIO TITLE "Contact" PERFORMER "Phish" INDEX 00 15:01:25 INDEX 01 15:03:35 TRACK 04 AUDIO TITLE "Union Federal" PERFORMER "Phish" INDEX 00 21:45:10 INDEX 01 21:45:12 TRACK 05 AUDIO TITLE "Sanity" PERFORMER "Phish" INDEX 00 47:14:30 INDEX 01 47:14:32 TRACK 06 AUDIO TITLE "Icculus" PERFORMER "Phish" INDEX 00 55:40:35 INDEX 01 55:40:37
-----------------------

DON'T MODIFY THIS FILE

-----------------------

PERFORMER: auCDtect Task Manager, ver. 1.5.1RC6 build 1.5.1.7Copyright (c) 2008-2010 y-soft. All rights reservedhttp://y-soft.org

ANALYZER: auCDtect: CD records authenticity detector, version 0.8.2Copyright (c) 2004 Oleg Berngardt. All rights reserved.Copyright (c) 2004 Alexander Djourik. All rights reserved.

FILE: Phish - Junta (CD2).wv Size: 366270610 Hash: B1D3F9B1A2B4E2967FC91521FCBF953F Accuracy: -m0 Conclusion: CDDA 100% Signature: 29C54E7941EDF0CC2F06DBD37DED8D29B9C52944
ELEKTRA 61413-2.sig
Phish - Junta (CD2) 1988.log
Phish - Junta (CD2) 1988.wv
Phish - Junta (CD2) 1988.wv.cue
cd.jpg
back.jpg
front.jpg
checkers\matrix.jpg
checkers\Phish - Junta (CD2) 1988.accurip
checkers\Phish - Junta (CD2).wv.auCDtect.txt
checkers\spectral.jpg
checkers\wave.jpg
checkers\EAC.jpg
misc\info.txt
readme\[RUS] README No unpacking needed to play or burn this release.txt
readme\[ENG] README No unpacking needed to play or burn this release.txt
scans\back.png
scans\booklet1-10.png
scans\booklet2-3.png
scans\booklet4-5.png
scans\booklet6-7.png
scans\booklet8-9.png
scans\cd.png
scans\inlay.png
- Trey Anastasio / guitar, vocals
- Jonathan Fishman / drums, trombone, vocals
- Mike Gordon / bass, vocals
- Page McConnell / piano, vocals


Трекер:  [ 29-Окт-2012 08:26 ]

  

Скачать .torrent

Размер .torrent файла 5 KB


Размер: 973 MB
Хэш (hash) релиза: dfe3070caae423978c60b2ae4523b480b29795aa

Еще никто не оставлял запись к записи скачать торрент Phish - Junta . Будь первым!

!Обратная связь