Скачать через торрент музыку Zuriwest - Radio zum Glück - 2001, FLAC бесплатно без регистрации torrent

Если у вас наблюдаются проблемы со скриншотами, переходом по ссылками, скачиванием торрентов - проблемы в блокировщике рекламы AdBlock. #хорошегоДня!


Статистика раздачи
Размер:  311 MB   |    Зарегистрирован:  4 года 9 месяцев   |    .torrent скачан:  9 раз   |   
Раздают:  1  
   
Загрузка...
 
Автор Сообщение

_N_

avatar _N_


Zuriwest / Radio zum Glück

Жанр: pop rock
Страна-производитель диска: Switzerland
Год издания: 2001
Издатель (лейбл): Sound Service
Номер по каталогу: 250801-2
Страна: Switzerland
Аудиокодек: FLAC (*.flac)
Тип рипа: image+.cue
Битрейт аудио: lossless
Продолжительность: 0:43:39.10
Источник (релизер): рип с собственного диска
Наличие сканов в содержимом раздачи: нет
Треклист:

01. Pamplona 03:45
02. Ohni Di 03:56
03. Julia 03:13
04. No'ne Blues 03:08
05. Obsi Nidsi 03:27
Lyrics By – Bernard Edwards & Nile Rodgers, Züriwest
06. Monster 03:34
07. Hermann 03:30
08. Toti Flüger 03:43
09. Geburtstag 03:07
10. Wenn i di nid cha überrede 03:06
Lyrics By – Bob Mould
Lyrics By [Translation] – Lauener
11. Radio zum Glück 02:33
12. Miuch & Zucker 03:41
13. Hugetobler 02:56
Exact Audio Copy V1.0 beta 3 from 29. August 2011

Отчёт EAC об извлечении, выполненном 27. октября 2012, 13:18

Züri West / Radio zum Glück

Дисковод: TSSTcorpCDDVDW SH-222AL Adapter: 3 ID: 0

Режим чтения : ДостоверностьИспользование точного потока : ДаОтключение кэша аудио : ДаИспользование указателей C2 : Нет

Коррекция смещения при чтении : 6Способность читать области Lead-in и Lead-out : НетЗаполнение пропущенных сэмплов тишиной : ДаУдаление блоков с тишиной в начале и конце : НетПри вычислениях CRC использовались нулевые сэмплы : ДаИнтерфейс : Встроенный Win32-интерфейс для Win NT/2000

Выходной формат : Внутренние WAV-операцииФормат сэмплов : 44.100 Гц; 16 бит; стерео

TOC извлечённого CD

Трек | Старт | Длительность | Начальный сектор | Конечный сектор --------------------------------------------------------------------- 1 | 0:00.00 | 3:45.37 | 0 | 16911 2 | 3:45.37 | 3:56.00 | 16912 | 34611 3 | 7:41.37 | 3:12.73 | 34612 | 49084 4 | 10:54.35 | 3:07.40 | 49085 | 63149 5 | 14:02.00 | 3:27.37 | 63150 | 78711 6 | 17:29.37 | 3:33.38 | 78712 | 94724 7 | 21:03.00 | 3:30.37 | 94725 | 110511 8 | 24:33.37 | 3:43.00 | 110512 | 127236 9 | 28:16.37 | 3:07.23 | 127237 | 141284 10 | 31:23.60 | 3:05.52 | 141285 | 155211 11 | 34:29.37 | 2:33.10 | 155212 | 166696 12 | 37:02.47 | 3:40.65 | 166697 | 183261 13 | 40:43.37 | 2:55.48 | 183262 | 196434

Характеристики диапазона извлечения и сообщения об ошибках

Выбранный диапазон

Имя файла E:\Music\Züri West - Radio zum Glück\Züri West - Radio zum Glück.wav

Пиковый уровень 100.0 % Скорость извлечения 5.4 X Качество диапазона 99.9 % CRC теста 105BC31F CRC копии 105BC31F Копирование... OK

Ошибок не произошло

AccurateRip: сводка

Трек 1 : извлечено точно (доверие 4) [68FB064E] (AR v2)Трек 2 : извлечено точно (доверие 4) [AC5FFC88] (AR v2)Трек 3 : извлечено точно (доверие 4) [45337576] (AR v2)Трек 4 : извлечено точно (доверие 4) [E9825E03] (AR v2)Трек 5 : извлечено точно (доверие 4) [9F4B4F7C] (AR v2)Трек 6 : извлечено точно (доверие 4) [8764A360] (AR v2)Трек 7 : извлечено точно (доверие 4) [CB35B794] (AR v2)Трек 8 : извлечено точно (доверие 4) [C60323E0] (AR v2)Трек 9 : извлечено точно (доверие 4) [B935610B] (AR v2)Трек 10 : извлечено точно (доверие 4) [FE057EA7] (AR v2)Трек 11 : извлечено точно (доверие 4) [0AEDBCFC] (AR v2)Трек 12 : извлечено точно (доверие 4) [9319C004] (AR v2)Трек 13 : извлечено точно (доверие 4) [82471CC1] (AR v2)

Все треки извлечены точно

Конец отчёта
REM GENRE RockREM DATE 2001REM DISCID B20A3B0DREM COMMENT "ExactAudioCopy v1.0b3"PERFORMER "Zuri West"TITLE "Radio zum Gluck"FILE "Zuri West - Radio zum Gluck.flac" WAVE TRACK 01 AUDIO TITLE "Pamplona" PERFORMER "Zuri West" INDEX 01 00:00:00 TRACK 02 AUDIO TITLE "Ohni Di" PERFORMER "Zuri West" INDEX 00 03:44:35 INDEX 01 03:45:37 TRACK 03 AUDIO TITLE "Julia" PERFORMER "Zuri West" INDEX 00 07:37:65 INDEX 01 07:41:37 TRACK 04 AUDIO TITLE "No'ne Blues" PERFORMER "Zuri West" INDEX 00 10:50:72 INDEX 01 10:54:35 TRACK 05 AUDIO TITLE "Obsi Nidsi" PERFORMER "Zuri West" INDEX 00 13:59:67 INDEX 01 14:02:00 TRACK 06 AUDIO TITLE "Monster" PERFORMER "Zuri West" INDEX 00 17:25:17 INDEX 01 17:29:37 TRACK 07 AUDIO TITLE "Hermann" PERFORMER "Zuri West" INDEX 00 20:59:50 INDEX 01 21:03:00 TRACK 08 AUDIO TITLE "Toti Fluger" PERFORMER "Zuri West" INDEX 00 24:31:65 INDEX 01 24:33:37 TRACK 09 AUDIO TITLE "Geburtstag" PERFORMER "Zuri West" INDEX 00 28:14:05 INDEX 01 28:16:37 TRACK 10 AUDIO TITLE "Wenn i di nid cha uberrede" PERFORMER "Zuri West" INDEX 00 31:21:40 INDEX 01 31:23:60 TRACK 11 AUDIO TITLE "Radio zum Gluck" PERFORMER "Zuri West" INDEX 00 34:27:30 INDEX 01 34:29:37 TRACK 12 AUDIO TITLE "Miuch & Zucker" PERFORMER "Zuri West" INDEX 00 37:01:15 INDEX 01 37:02:47 TRACK 13 AUDIO TITLE "Hugetobler" PERFORMER "Zuri West" INDEX 00 40:14:47 INDEX 01 40:43:37
Züri West is a Swiss rock band. Most of their songs are written in Bernese German.
The band's name is an ironic reference to Bern, as merely a place west of Zürich, the largest city in Switzerland.
Arranged By [Strings] – Simon Hostettler (tracks: 1, 8), Thomas Fischer (tracks: 5, 7, 10)
Cello – Patrik Sepec
Composed By – Züriwest*
Congas – Anselmo Torres
Lyrics By – Lauener* (tracks: 1 to 9, 11 to 13)
Mastered By – Glenn Müller*
Performer – Gert Stäuble, Jürg Schmidhauser*, Kuno Lauener, Markus Fehlmann, Oli Kuster, Tom Etter
Recorded By [Assistant], Mixed By [Assistant] – Carlo Raselli, Mike Seda, Snoopy T.
Recorded By, Mixed By – Oli Bösch
Viola – Carolina Mateos
Violin – Daniel Künzler, Matthias Weibel
Vocals – Nicole Wiederkehr


Трекер:  [ 29-Окт-2012 08:26 ]

  

Скачать .torrent

Размер .torrent файла 13 KB


Размер: 311 MB
Хэш (hash) релиза: d82a43312c404a00baef52c6d60d8ccbb799eb09

Еще никто не оставлял запись к записи скачать торрент Zuriwest - Radio zum Glück - 2001, FLAC . Будь первым!

!Обратная связь