Скачать через торрент музыку Carl Leyland Sonny Trio & Quartet - Farrish Street Jive - 1998, бесплатно без регистрации torrent

Если у вас наблюдаются проблемы со скриншотами, переходом по ссылками, скачиванием торрентов - проблемы в блокировщике рекламы AdBlock. #хорошегоДня!


Статистика раздачи
Размер:  188 MB   |    Зарегистрирован:  4 года 9 месяцев   |    .torrent скачан:  8 раз   |   
Раздают:  1  
   
Загрузка...
 
Автор Сообщение

_N_

avatar _N_


Carl Leyland Sonny Trio & Quartet / Farrish Street Jive

Жанр: Jive / Boogie Woogie
Страна-производитель диска: Suomi
Год издания: 1998
Издатель (лейбл): Goofin Records
Номер по каталогу: GRCD 6078
Страна: USA
Аудиокодек: FLAC (*.flac)
Тип рипа: image+.cue
Битрейт аудио: lossless
Продолжительность: 43:00
Источник (релизер): AUDELAS KINGDOM
Наличие сканов в содержимом раздачи: да
01. Bugle Call Rag
02. Carl's Boogie
03. Little Joe From Chicago
04. Big Cat Little Cat
05. Sheik Of Araby
06. The Dirty Dozens
07. Shreveport Farewell
08. Farrish Street Jive
09. My Rough And Rowdy Ways
10. Jimtown Blues
11. Shine
12. When A Soldier Knocks
13. Don't Tear My Clothes
14. Wrap Your Troubles in Dreams
Exact Audio Copy V1.0 beta 2 from 29. April 2011

EAC extraction logfile from 27. October 2012, 13:59

Carl Leyland Sonny Trio & Quartet / Farrish Street Jive

Used drive : _NEC DVD_RW ND-3550A Adapter: 1 ID: 0

Read mode : SecureUtilize accurate stream : YesDefeat audio cache : YesMake use of C2 pointers : No

Read offset correction : 48Overread into Lead-In and Lead-Out : NoFill up missing offset samples with silence : YesDelete leading and trailing silent blocks : NoNull samples used in CRC calculations : YesUsed interface : Native Win32 interface for Win NT & 2000

Used output format : User Defined EncoderSelected bitrate : 768 kBit/sQuality : HighAdd ID3 tag : NoCommand line compressor : C:\Program Files\Exact Audio Copy\FLAC\FLAC.EXEAdditional command line options : -6 -V -T "ARTIST=%artist%" -T "TITLE=%title%" -T "ALBUM=%albumtitle%" -T "DATE=%year%" -T "TRACKNUMBER=%tracknr%" -T "GENRE=%genre%" -T "COMMENT=%comment%" -T "BAND=%albuminterpret%" -T "COMPOSER=%composer%" %haslyrics%--ta

TOC of the extracted CD

Track | Start | Length | Start sector | End sector --------------------------------------------------------- 1 | 0:00.00 | 2:40.72 | 0 | 12071 2 | 2:40.72 | 3:52.28 | 12072 | 29499 3 | 6:33.25 | 3:36.55 | 29500 | 45754 4 | 10:10.05 | 4:08.25 | 45755 | 64379 5 | 14:18.30 | 4:38.12 | 64380 | 85241 6 | 18:56.42 | 3:57.12 | 85242 | 103028 7 | 22:53.54 | 3:29.63 | 103029 | 118766 8 | 26:23.42 | 2:43.38 | 118767 | 131029 9 | 29:07.05 | 3:25.42 | 131030 | 146446 10 | 32:32.47 | 3:25.13 | 146447 | 161834 11 | 35:57.60 | 3:51.72 | 161835 | 179231 12 | 39:49.57 | 4:17.08 | 179232 | 198514 13 | 44:06.65 | 2:45.50 | 198515 | 210939 14 | 46:52.40 | 2:21.00 | 210940 | 221514

Range status and errors

Selected range

Filename D:\Muzika\Carl Leyland Sonny Trio & Quartet - Farrish Street Jive (1998)\Carl Leyland Sonny Trio & Quartet - Farrish Street Jive.wav

Peak level 94.4 % Extraction speed 1.8 X Range quality 99.9 % Test CRC E5070F27 Copy CRC E5070F27 Copy OK

No errors occurred

AccurateRip summary

Track 1 not present in databaseTrack 2 not present in databaseTrack 3 not present in databaseTrack 4 not present in databaseTrack 5 not present in databaseTrack 6 not present in databaseTrack 7 not present in databaseTrack 8 not present in databaseTrack 9 not present in databaseTrack 10 not present in databaseTrack 11 not present in databaseTrack 12 not present in databaseTrack 13 not present in databaseTrack 14 not present in database

None of the tracks are present in the AccurateRip database

End of status report

==== Log checksum 3CCDDA36E09ACC3B91E1A94729DD69F51698F3780EB3B36D07797728660A1606 ====


Трекер:  [ 29-Окт-2012 08:26 ]

  

Скачать .torrent

Размер .torrent файла 15 KB


Размер: 188 MB
Хэш (hash) релиза: 3257bb215e0391ba3013d9092c922eccf44846d4

Еще никто не оставлял запись к записи скачать торрент Carl Leyland Sonny Trio & Quartet - Farrish Street Jive - 1998, . Будь первым!

!Обратная связь