Скачать через торрент музыку Buddy Knox - Greatest Hits 57-61 - 1995, бесплатно без регистрации torrent

Если у вас наблюдаются проблемы со скриншотами, переходом по ссылками, скачиванием торрентов - проблемы в блокировщике рекламы AdBlock. #хорошегоДня!


Статистика раздачи
Размер:  397 MB   |    Зарегистрирован:  5 лет   |    .torrent скачан:  10 раз   |   
Раздают:  1  
   
Загрузка...
 
Автор Сообщение

_N_

avatar _N_


Buddy Knox / Greatest Hits

Жанр: Rockabilly / Rock'n'Roll
Страна-производитель диска: Canada
Год издания: 1995
Издатель (лейбл): Point Records
Номер по каталогу: 16255
Страна: USA
Аудиокодек: FLAC (*.flac)
Тип рипа: image+.cue
Битрейт аудио: lossless
Продолжительность: 72:05
Источник (релизер): AUDELAS KINGDOM
Наличие сканов в содержимом раздачи: да
01. Party Doll
02. Storm Clouds
03. That's Why I Cry
04. Hula Love
05. C'mon Baby
06. All For You
07. I Think I'm Gonna Kill Myself
08. Lovey Dovey
09. Ling-Ting-Tong
10. Somebody Touched Me
11. Rock Your Little Baby To Sleep
12. Cause I'm In Love
13. Swinging Daddy
14. The Girl With The Golden Hair
15. Devil Woman
16. Mary Lou
17. Rock House
18. Maybelline
19. Rock Around The Clock
20. She's Gone
21. Slippin' And Slidin'
22. Chi-Hua-Hua
23. Open (Your Lovin' Arms)
24. Dear Abby
25. Three Eyed Man
26. Tomorrow Is A Comin'
27. Hitch Hike Back To Georgia
28. I Got You
29. I Ain't Sharin' Sharon
30. I'm In Love With You
31. Long Lonely Nights
32. Good Time Girl
33. Livin' In a House Full Of Love
34. Love Has Many Ways
35. Teasable, Pleasable You

Exact Audio Copy V1.0 beta 2 from 29. April 2011

EAC extraction logfile from 27. October 2012, 15:11

Buddy Knox / Greatest Hits

Used drive : _NEC DVD_RW ND-3550A Adapter: 1 ID: 0

Read mode : SecureUtilize accurate stream : YesDefeat audio cache : YesMake use of C2 pointers : No

Read offset correction : 48Overread into Lead-In and Lead-Out : NoFill up missing offset samples with silence : YesDelete leading and trailing silent blocks : NoNull samples used in CRC calculations : YesUsed interface : Native Win32 interface for Win NT & 2000

Used output format : User Defined EncoderSelected bitrate : 768 kBit/sQuality : HighAdd ID3 tag : NoCommand line compressor : C:\Program Files\Exact Audio Copy\FLAC\FLAC.EXEAdditional command line options : -6 -V -T "ARTIST=%artist%" -T "TITLE=%title%" -T "ALBUM=%albumtitle%" -T "DATE=%year%" -T "TRACKNUMBER=%tracknr%" -T "GENRE=%genre%" -T "COMMENT=%comment%" -T "BAND=%albuminterpret%" -T "COMPOSER=%composer%" %haslyrics%--ta

TOC of the extracted CD

Track | Start | Length | Start sector | End sector --------------------------------------------------------- 1 | 0:00.32 | 2:14.40 | 32 | 10121 2 | 2:14.72 | 2:01.68 | 10122 | 19264 3 | 4:16.65 | 1:59.17 | 19265 | 28206 4 | 6:16.07 | 2:22.15 | 28207 | 38871 5 | 8:38.22 | 2:03.45 | 38872 | 48141 6 | 10:41.67 | 2:08.48 | 48142 | 57789 7 | 12:50.40 | 2:03.65 | 57790 | 67079 8 | 14:54.30 | 2:12.37 | 67080 | 77016 9 | 17:06.67 | 2:08.08 | 77017 | 86624 10 | 19:15.00 | 2:19.32 | 86625 | 97081 11 | 21:34.32 | 2:23.10 | 97082 | 107816 12 | 23:57.42 | 1:46.68 | 107817 | 115834 13 | 25:44.35 | 1:48.22 | 115835 | 123956 14 | 27:32.57 | 2:35.35 | 123957 | 135616 15 | 30:08.17 | 2:09.55 | 135617 | 145346 16 | 32:17.72 | 2:17.63 | 145347 | 155684 17 | 34:35.60 | 1:52.50 | 155685 | 164134 18 | 36:28.35 | 1:50.35 | 164135 | 172419 19 | 38:18.70 | 1:53.27 | 172420 | 180921 20 | 40:12.22 | 2:02.43 | 180922 | 190114 21 | 42:14.65 | 1:50.52 | 190115 | 198416 22 | 44:05.42 | 2:23.15 | 198417 | 209156 23 | 46:28.57 | 2:00.48 | 209157 | 218204 24 | 48:29.30 | 2:18.50 | 218205 | 228604 25 | 50:48.05 | 1:56.60 | 228605 | 237364 26 | 52:44.65 | 1:49.67 | 237365 | 245606 27 | 54:34.57 | 2:11.03 | 245607 | 255434 28 | 56:45.60 | 1:47.52 | 255435 | 263511 29 | 58:33.37 | 2:00.23 | 263512 | 272534 30 | 60:33.60 | 1:46.22 | 272535 | 280506 31 | 62:20.07 | 1:40.48 | 280507 | 288054 32 | 64:00.55 | 2:40.05 | 288055 | 300059 33 | 66:40.60 | 2:01.57 | 300060 | 309191 34 | 68:42.42 | 2:16.35 | 309192 | 319426 35 | 70:59.02 | 2:16.43 | 319427 | 329669

Range status and errors

Selected range

Filename D:\Muzika\Buddy Knox - Greatest Hits (1995)\Buddy Knox - Greatest Hits.wav

Peak level 100.0 % Extraction speed 2.3 X Range quality 100.0 % Test CRC 2C2D3BD0 Copy CRC 2C2D3BD0 Copy OK

No errors occurred

AccurateRip summary

Track 1 not present in databaseTrack 2 not present in databaseTrack 3 not present in databaseTrack 4 not present in databaseTrack 5 not present in databaseTrack 6 not present in databaseTrack 7 not present in databaseTrack 8 not present in databaseTrack 9 not present in databaseTrack 10 not present in databaseTrack 11 not present in databaseTrack 12 not present in databaseTrack 13 not present in databaseTrack 14 not present in databaseTrack 15 not present in databaseTrack 16 not present in databaseTrack 17 not present in databaseTrack 18 not present in databaseTrack 19 not present in databaseTrack 20 not present in databaseTrack 21 not present in databaseTrack 22 not present in databaseTrack 23 not present in databaseTrack 24 not present in databaseTrack 25 not present in databaseTrack 26 not present in databaseTrack 27 not present in databaseTrack 28 not present in databaseTrack 29 not present in databaseTrack 30 not present in databaseTrack 31 not present in databaseTrack 32 not present in databaseTrack 33 not present in databaseTrack 34 not present in databaseTrack 35 not present in database

None of the tracks are present in the AccurateRip database

End of status report

==== Log checksum 1443A2F8E4AA6EF0543E96822BB5C8B5B29091AF74B92224C1E7C9045100F570 ====


Трекер:  [ 29-Окт-2012 08:26 ]

  

Скачать .torrent

Размер .torrent файла 16 KB


Размер: 397 MB
Хэш (hash) релиза: 4ea60ee983392ae61747dd121d29c690950cbb39

Еще никто не оставлял запись к записи скачать торрент Buddy Knox - Greatest Hits 57-61 - 1995, . Будь первым!

!Обратная связь