Скачать через торрент музыку Kalin Twins - When 58-61 - 1992, бесплатно без регистрации torrent

Если у вас наблюдаются проблемы со скриншотами, переходом по ссылками, скачиванием торрентов - проблемы в блокировщике рекламы AdBlock. #хорошегоДня!


Статистика раздачи
Размер:  368 MB   |    Зарегистрирован:  4 года 11 месяцев   |    .torrent скачан:  8 раз   |   
Раздают:  1  
   
Загрузка...
 
Автор Сообщение

_N_

avatar _N_


Kalin Twins / When

Жанр: Rock'n'Roll
Страна-производитель диска: Germany
Год издания: 1992
Издатель (лейбл): Bear Family Records
Номер по каталогу: BCD 15597
Страна: USA
Аудиокодек: FLAC (*.flac)
Тип рипа: image+.cue
Битрейт аудио: lossless
Продолжительность: 72:00
Источник (релизер): AUDELAS KINGDOM
Наличие сканов в содержимом раздачи: да
01. When
02. Three OClock Thrill
03. Jumpin Jack
04. Walkin To School
05. The Spider And The Fly
06. Forget Me Not
07. Dream Of Me
08. Oh! My Goodness
09. Chicken Thief
10. Its Only The Beginning
11. Clickety Clack
12. Sweet Sugar Lips
13. Moody
14. A Picture Of You
15. You Mean The World To Me
16. School Bell Dream
17. When I Look In The Mirror
18. Im Gonna Knock On Your Door
19. Little Miss Blue
20. Bye, Bye Blackbird
21. Make Love To Me
22. Sail Along, Silvery Moon
23. True Love
24. Tonight You Belong To Me
25. Zing, Went The Strings Of My Heart
26. Momma Poppa
27. No Money Can Buy
28. Bubbles
29. One More Time
30. Its Just Terrible

Exact Audio Copy V1.0 beta 2 from 29. April 2011

EAC extraction logfile from 27. October 2012, 16:07

Kalin Twins / When

Used drive : _NEC DVD_RW ND-3550A Adapter: 1 ID: 0

Read mode : SecureUtilize accurate stream : YesDefeat audio cache : YesMake use of C2 pointers : No

Read offset correction : 48Overread into Lead-In and Lead-Out : NoFill up missing offset samples with silence : YesDelete leading and trailing silent blocks : NoNull samples used in CRC calculations : YesUsed interface : Native Win32 interface for Win NT & 2000

Used output format : User Defined EncoderSelected bitrate : 768 kBit/sQuality : HighAdd ID3 tag : NoCommand line compressor : C:\Program Files\Exact Audio Copy\FLAC\FLAC.EXEAdditional command line options : -6 -V -T "ARTIST=%artist%" -T "TITLE=%title%" -T "ALBUM=%albumtitle%" -T "DATE=%year%" -T "TRACKNUMBER=%tracknr%" -T "GENRE=%genre%" -T "COMMENT=%comment%" -T "BAND=%albuminterpret%" -T "COMPOSER=%composer%" %haslyrics%--ta

TOC of the extracted CD

Track | Start | Length | Start sector | End sector --------------------------------------------------------- 1 | 0:00.32 | 2:29.05 | 32 | 11211 2 | 2:29.37 | 2:28.00 | 11212 | 22311 3 | 4:57.37 | 2:05.03 | 22312 | 31689 4 | 7:02.40 | 2:29.72 | 31690 | 42936 5 | 9:32.37 | 2:06.55 | 42937 | 52441 6 | 11:39.17 | 2:27.73 | 52442 | 63539 7 | 14:07.15 | 2:40.02 | 63540 | 75541 8 | 16:47.17 | 2:04.33 | 75542 | 84874 9 | 18:51.50 | 2:04.50 | 84875 | 94224 10 | 20:56.25 | 2:41.17 | 94225 | 106316 11 | 23:37.42 | 2:19.50 | 106317 | 116791 12 | 25:57.17 | 1:47.53 | 116792 | 124869 13 | 27:44.70 | 2:35.47 | 124870 | 136541 14 | 30:20.42 | 2:12.00 | 136542 | 146441 15 | 32:32.42 | 2:12.60 | 146442 | 156401 16 | 34:45.27 | 2:17.00 | 156402 | 166676 17 | 37:02.27 | 2:39.18 | 166677 | 178619 18 | 39:41.45 | 2:00.45 | 178620 | 187664 19 | 41:42.15 | 1:56.30 | 187665 | 196394 20 | 43:38.45 | 1:59.60 | 196395 | 205379 21 | 45:38.30 | 2:54.72 | 205380 | 218501 22 | 48:33.27 | 2:44.25 | 218502 | 230826 23 | 51:17.52 | 2:35.48 | 230827 | 242499 24 | 53:53.25 | 2:29.45 | 242500 | 253719 25 | 56:22.70 | 2:38.20 | 253720 | 265589 26 | 59:01.15 | 2:54.55 | 265590 | 278694 27 | 61:55.70 | 2:33.30 | 278695 | 290199 28 | 64:29.25 | 2:13.00 | 290200 | 300174 29 | 66:42.25 | 2:25.42 | 300175 | 311091 30 | 69:07.67 | 2:02.13 | 311092 | 320254

Range status and errors

Selected range

Filename D:\Muzika\Kalin Twins - When (1992)\Kalin Twins - When.wav

Peak level 100.0 % Extraction speed 5.6 X Range quality 100.0 % Test CRC A90D2496 Copy CRC A90D2496 Copy OK

No errors occurred

AccurateRip summary

Track 1 accurately ripped (confidence 4) [7E3E61BB] (AR v1)Track 2 accurately ripped (confidence 4) [7C4359B1] (AR v1)Track 3 accurately ripped (confidence 4) [69D4211D] (AR v1)Track 4 accurately ripped (confidence 4) [B29D016B] (AR v1)Track 5 accurately ripped (confidence 4) [161D3321] (AR v1)Track 6 accurately ripped (confidence 4) [A09CF7E8] (AR v1)Track 7 accurately ripped (confidence 4) [D602DC15] (AR v1)Track 8 accurately ripped (confidence 4) [59AF84A5] (AR v1)Track 9 accurately ripped (confidence 4) [E62E1299] (AR v1)Track 10 accurately ripped (confidence 4) [19A09EEC] (AR v1)Track 11 accurately ripped (confidence 4) [0D667498] (AR v1)Track 12 accurately ripped (confidence 4) [CBE26591] (AR v1)Track 13 accurately ripped (confidence 4) [4A9FD370] (AR v1)Track 14 accurately ripped (confidence 4) [1261F7C4] (AR v1)Track 15 accurately ripped (confidence 4) [D5F40A86] (AR v1)Track 16 accurately ripped (confidence 4) [338BA5D2] (AR v1)Track 17 accurately ripped (confidence 4) [4F788494] (AR v1)Track 18 accurately ripped (confidence 4) [98A68B48] (AR v1)Track 19 accurately ripped (confidence 4) [BDBE56FB] (AR v1)Track 20 accurately ripped (confidence 4) [9809CE4F] (AR v1)Track 21 accurately ripped (confidence 4) [D3398262] (AR v1)Track 22 accurately ripped (confidence 4) [C6FCEAD8] (AR v1)Track 23 accurately ripped (confidence 4) [C88E90F7] (AR v1)Track 24 accurately ripped (confidence 4) [F42C258A] (AR v1)Track 25 accurately ripped (confidence 4) [A4BAC299] (AR v1)Track 26 accurately ripped (confidence 4) [91224351] (AR v1)Track 27 accurately ripped (confidence 4) [0ADD1540] (AR v1)Track 28 accurately ripped (confidence 4) [695B00BB] (AR v1)Track 29 accurately ripped (confidence 4) [CCF1CB7B] (AR v1)Track 30 accurately ripped (confidence 4) [22B8BD50] (AR v1)

All tracks accurately ripped

End of status report

==== Log checksum 71B83AAC01F2D504D758A66BB12732FD5887912674A188A4BE5499F8C647A6EE ====


Трекер:  [ 29-Окт-2012 08:26 ]

  

Скачать .torrent

Размер .torrent файла 15 KB


Размер: 368 MB
Хэш (hash) релиза: 6505e699aefbab5838dca5ddf2e3898b61f53d76

Еще никто не оставлял запись к записи скачать торрент Kalin Twins - When 58-61 - 1992, . Будь первым!

!Обратная связь