Скачать через торрент Проект А Операция А Фильм бесплатно в хорошем качестве torrent

Скачивайте на UnionPeer.org фильмы через торрент без регистрации. Новинки кино в хорошем качестве через торрент. На UnionPeer.org можно скачать через торрент фильмы 2014 и 2015 годов. Самые новые фильмы.

Скачать торрент Проект А Операция А бесплатно через .torrent фильм мультфильм сериал

Если у вас наблюдаются проблемы со скриншотами, переходом по ссылками, скачиванием торрентов - проблемы в блокировщике рекламы AdBlock. #хорошегоДня!


Статистика раздачи
Размер:  612 MB   |    Зарегистрирован:  4 года 11 месяцев   |    .torrent скачан:  210 раз   |   
Раздают:  1  
   
Загрузка...
 
Автор Сообщение

Galfimbul

avatar Galfimbul


Проект А / Операция А / Project A / «A» gai waak
Оригинальное название: Project A / «A» gai waak
Год выпуска: 1983 г.
Страна: Гонконг
Жанр: боевик, комедия
Продолжительность: 01:45:20
Перевод:

Профессиональный (двухголосый закадровый) R5

Cубтитры: нет
Режиссер: Джеки Чан, Саммо Хунг Кам-Бо / Jackie Chan, Sammo Hung Kam-Bo

В ролях: Джеки Чан, Саммо Хунг Кам-Бо, Юэнь Бяо, Дик Вэй, Марс, Винни Вонг, По Тай, Ву Лонг Чунг, Хой Сан Ли, Хой-Шан Кван, Вай Вон, МэнКуэнь, Хо Кай Ло, Фэт Ван, Харк-Сун Лау, Ву Ма, Кван Вон, Йим Чан Тэнг, Бенни Лай
Описание: В Гонконге конца XIX века нет никакого житья от пиратов, которые буквально оккупировали море и стали диктовать свои правила. К тому же и местная полиция коррумпирована. Правительство вынуждено разработать специальный план под кодовым названием «Операция А», однако предводитель пиратов Лор Сампау слишком хитёр и постоянно выходит победителем из всех схваток. За воплощение данного проекта в жизнь берётся отважный сотрудник береговой охраны Ми Ён по прозвищу Дракон.
Джеки Чан ввязывается в драки и разборки на экране подобно привередливому, напрашивающемуся на приключения диснеевскому утёнку Доналду Даку. Вытворяет со своим телом бог знает что — и ему не нужны для этого ни спецэффекты «бондианы» и прочих зрелищных боевиков, ни дополнительные компьютерные уловки в стиле «Маски».
В результате падения с часовой башни Чан получил повреждение позвоночника, растяжение связок шеи, повредил горло. Снова сломан нос и пальцы рук.
Часовая башня в фильме была создана благодаря вдохновению, полученному от часовой башни Коулун-кантонской железной дороги, построенной в 1915 году. Та башня, что мы видим в фильме, была построена на студии Golden Harvest. Настоящая часовая башня Коулун-кантонской железной дороги была построена и сдана в эксплуатацию в 1921 году, как часть конечной остановки железнодорожной магистрали. Конечная остановка в 1975 году была перенесена в Hung Hom и теперь в память о ней остается лишь часовая башня в Цим Ша Цуи.
Дверь, в которую стучит Джеки Чан во время проезда на велосипеде по узкой улочке, как все могут увидеть, ненастоящая. Дверь и стена были построены для этой сцены, потому что на настоящей узкой улице было невозможно снять сцену так, как задумывалось. Джеки решил удлинить стену на несколько футов так, чтобы камера могла взять наилучший план. Когда головорез и его велосипед падают на землю, можно увидеть как переднее колесо ударяет фальшивую стену.
Джеки с командой обучался строевой подготовке и умению правильно маршировать в Королевской Гонконгской Морской Полицейской Корпорации.
Фильм снимался в течение 2-х лет
Качество видео: BDRip
Формат: MP4
Видео кодек: H.264
Аудио кодек: AAC
Видео: 480x208 (2.35:1), 23.976 fps, x264 ~680 kbps avg, 0.284 bit/pixel
Аудио: AAC-LC VBR 2 channels, 48.0 KHz ~128 Kbps Профессиональный (двухголосый закадровый) R5
f:\Фильмы\PSP\Каратэ\Project A (1983)\Project A (1983).mp4
  General
    Complete name : f:\Фильмы\PSP\Каратэ\Project A (1983)\Project A (1983).mp4
    Format : MPEG-4
    Format profile : Base Media
    Codec ID : isom
    File size : 612 MiB
    Duration : 1h 45mn
    Overall bit rate : 813 Kbps
    Writing application : XviD4PSP 6.0 / 54.29.105
  Video #1
    ID : 1
    Format : AVC
    Format/Info : Advanced Video Codec
    Format profile : <a href="mailto:Main@L3.0" class="postLink">Main@L3.0</a>
    Format settings, CABAC : Yes
    Format settings, ReFrames : 3 frames
    Codec ID : avc1
    Codec ID/Info : Advanced Video Coding
    Duration : 1h 45mn
    Bit rate : 680 Kbps
    Width : 480 pixels
    Height : 208 pixels
    Display aspect ratio : 2.35:1
    Frame rate mode : Constant
    Frame rate : 23.976 fps
    Color space : YUV
    Chroma subsampling : 4:2:0
    Bit depth : 8 bits
    Scan type : Progressive
    Bits/(Pixel*Frame) : 0.284
    Stream size : 512 MiB (84%)
    Writing library : x264 core 125 r2208 d9d2288
    Encoding settings : cabac=1 / ref=3 / deblock=1:-1:1 / analyse=0x1:0x131 / me=umh / subme=10 / psy=1 / psy_rd=1.00:0.20 / mixed_ref=1 / me_range=32 / chroma_me=1 / trellis=2 / 8x8dct=0 / cqm=0 / deadzone=21,11 / fast_pskip=0 / chroma_qp_offset=-3 / threads=3 / lookahead_threads=1 / sliced_threads=0 / nr=0 / decimate=0 / interlaced=0 / bluray_compat=0 / constrained_intra=0 / bframes=3 / b_pyramid=0 / b_adapt=2 / b_bias=0 / direct=3 / weightb=1 / open_gop=0 / weightp=2 / keyint=250 / keyint_min=23 / scenecut=40 / intra_refresh=0 / rc=2pass / mbtree=0 / bitrate=680 / ratetol=1.0 / qcomp=0.60 / qpmin=0 / qpmax=69 / qpstep=4 / cplxblur=20.0 / qblur=0.5 / ip_ratio=1.40 / pb_ratio=1.30 / aq=1:1.00
  Audio #2
    ID : 2
    Format : AAC
    Format/Info : Advanced Audio Codec
    Format profile : LC
    Codec ID : 40
    Duration : 1h 45mn
    Bit rate mode : Constant
    Bit rate : 128 Kbps
    Channel(s) : 2 channels
    Channel positions : Front: L R
    Sampling rate : 48.0 KHz
    Compression mode : Lossy
    Stream size : 96.2 MiB (16%)
x264.exe: --pass 2 --bitrate 680 --preset medium --level 3.0 --deblock -1:1 --merange 32 --direct auto --b-adapt 2 --b-pyramid none --trellis 2 --no-fast-pskip --no-dct-decimate --psy-rd 1.00:0.20 --partitions p8x8,b8x8,i4x4,p4x4 --no-8x8dct --subme 10 --me umh --no-mbtree --sar 1:1 --stats "F:\project.log" --output "F:\project.mp4" "D:\Temp\0012.avs"

avs [info]: 480x208p 1:1 @ 24000/1001 fps (cfr)
x264 [info]: using SAR=1/1
x264 [info]: using cpu capabilities: MMX2 SSE2Fast SSSE3 Cache64
x264 [info]: profile Main, level 3.0

x264 [info]: frame I:1909  Avg QP:18.25  size: 20091
x264 [info]: frame P:65971 Avg QP:21.77  size:  5454
x264 [info]: frame B:83652 Avg QP:24.29  size:  1663
x264 [info]: consecutive B-frames:  8.4% 41.0% 39.2% 11.4%
x264 [info]: mb I  I16..4: 17.0%  0.0% 83.0%
x264 [info]: mb P  I16..4:  1.0%  0.0%  7.5%  P16..4: 37.0% 24.2% 20.8%  4.3%  1.7%    skip: 3.5%
x264 [info]: mb B  I16..4:  0.1%  0.0%  1.5%  B16..8: 36.2% 13.9%  5.6%  direct: 5.4%  skip:37.3%  L0:30.6% L1:42.7% BI:26.7%
x264 [info]: direct mvs  spatial:97.7% temporal:2.3%
x264 [info]: coded y,uvDC,uvAC intra: 94.3% 83.7% 56.5% inter: 33.0% 18.4% 8.9%
x264 [info]: i16 v,h,dc,p: 28% 14% 26% 32%
x264 [info]: i4 v,h,dc,ddl,ddr,vr,hd,vl,hu: 11%  9%  3%  9% 13% 13% 13% 13% 16%
x264 [info]: i8c dc,h,v,p: 38% 25% 22% 15%
x264 [info]: Weighted P-Frames: Y:11.2% UV:2.1%
x264 [info]: ref P L0: 64.4% 17.7% 12.0%  5.5%  0.5%
x264 [info]: ref B L0: 88.6% 11.4%
x264 [info]: kb/s:680.02

x264 [total]: encoded 151532 frames, 14.74 fps, 680.02 kb/s
x264 [info]: final ratefactor: 18.96


Трекер:  [ 27-Окт-2012 16:04 ]

  

Скачать .torrent

Размер .torrent файла 12 KB


Размер: 612 MB
Хэш (hash) релиза: 9981f59975f355385629b9c477ffe4e553ed7eef
Подписка на обновления:

Еще никто не оставлял запись к записи скачать торрент Проект А Операция А . Будь первым!

!Обратная связь