Скачать через торрент Человек тьмы III. Умри, человек тьмы Darkman III: Die Darkman Die Фильм бесплатно в хорошем качестве torrent

Скачивайте на UnionPeer.org фильмы через торрент без регистрации. Новинки кино в хорошем качестве через торрент. На UnionPeer.org можно скачать через торрент фильмы 2014 и 2015 годов. Самые новые фильмы.

Скачать торрент Человек тьмы III. Умри, человек тьмы Darkman III: Die Darkman Die бесплатно через .torrent фильм мультфильм сериал

Если у вас наблюдаются проблемы со скриншотами, переходом по ссылками, скачиванием торрентов - проблемы в блокировщике рекламы AdBlock. #хорошегоДня!


Статистика раздачи
Размер:  486 MB   |    Зарегистрирован:  5 лет   |    .torrent скачан:  134 раза   |   
Раздают:  1  
   
Загрузка...
 
Автор Сообщение

Galfimbul

avatar Galfimbul


Человек тьмы III. Умри, человек тьмы Darkman III: Die Darkman Die
Оригинальное название: Darkman III: Die Darkman Die
Год выпуска: 1996 г.
Страна: США
Жанр: боевик, триллер, фантастика
Продолжительность: 01:23:44
Перевод:

Профессиональный (многоголосый закадровый)

Cубтитры: нет
Режиссер: Брэдфорд Мэй / Bradford May
В ролях: Джефф Фэйи, Арнольд Вослу, Дарлэнн Флюгел, Роксанн Доусон, Найджел Беннетт, Alicia Panetta, Ронн Саросьяк, Питер Грэхэм, Шоун Дойл, Вьеслав Кристиан
Описание: Когда-то давно доктор Уэстлэйк был обезображен гангстерами и превратился в неуловимого мастера маскировки, отважного мстителя — «Человека Тьмы». В этот раз Человеку Тьмы снова противостоит опасный и сильный противник — безжалостный преступник Питер Рукер.
Коварный злодей хочет найти таинственный источник сверхъестественной силы героя и устраивает ему ловушку. Оказавшись в западне, Человек Тьмы вступает в свой последний и самый отчаянный бой с бандой Рукера, бой кровавый и жестокий…
Качество видео: DVDRip
Формат: MP4
Видео кодек: H.264
Аудио кодек: AAC
Видео: 480x272 (16:9), 25.000 fps, x264 ~680 kbps avg, 0.208 bit/pixel
Аудио: AAC-LC CBR 2 channels, 48.0 KHz ~128 Kbps Профессиональный (многоголосый закадровый)
f:\Фильмы\PSP\Fantasy\Darkman III (1996)\Darkman III (1996).mp4
  General
    Complete name : f:\Фильмы\PSP\Fantasy\Darkman III (1996)\Darkman III (1996).mp4
    Format : MPEG-4
    Format profile : Base Media
    Codec ID : isom
    File size : 486 MiB
    Duration : 1h 23mn
    Overall bit rate mode : Variable
    Overall bit rate : 812 Kbps
    Encoded date : UTC 2012-10-23 14:34:24
    Tagged date : UTC 2012-10-23 14:34:24
  Video #1
    ID : 1
    Format : AVC
    Format/Info : Advanced Video Codec
    Format profile : <a href="mailto:Main@L3.0" class="postLink">Main@L3.0</a>
    Format settings, CABAC : Yes
    Format settings, ReFrames : 3 frames
    Codec ID : avc1
    Codec ID/Info : Advanced Video Coding
    Duration : 1h 23mn
    Bit rate : 680 Kbps
    Maximum bit rate : 2 160 Kbps
    Width : 480 pixels
    Height : 272 pixels
    Display aspect ratio : 16:9
    Frame rate mode : Constant
    Frame rate : 25.000 fps
    Color space : YUV
    Chroma subsampling : 4:2:0
    Bit depth : 8 bits
    Scan type : Progressive
    Bits/(Pixel*Frame) : 0.208
    Stream size : 407 MiB (84%)
    Writing library : x264 core 125 r2208 d9d2288
    Encoding settings : cabac=1 / ref=3 / deblock=1:-1:0 / analyse=0x1:0x131 / me=umh / subme=10 / psy=1 / psy_rd=1.00:0.20 / mixed_ref=1 / me_range=32 / chroma_me=1 / trellis=2 / 8x8dct=0 / cqm=0 / deadzone=21,11 / fast_pskip=0 / chroma_qp_offset=-3 / threads=3 / lookahead_threads=1 / sliced_threads=0 / nr=0 / decimate=0 / interlaced=0 / bluray_compat=0 / constrained_intra=0 / bframes=3 / b_pyramid=0 / b_adapt=2 / b_bias=0 / direct=3 / weightb=1 / open_gop=0 / weightp=2 / keyint=250 / keyint_min=25 / scenecut=40 / intra_refresh=0 / rc=2pass / mbtree=0 / bitrate=680 / ratetol=1.0 / qcomp=0.60 / qpmin=0 / qpmax=69 / qpstep=4 / cplxblur=20.0 / qblur=0.5 / ip_ratio=1.40 / pb_ratio=1.30 / aq=1:1.00
    Encoded date : UTC 2012-10-23 14:34:24
    Tagged date : UTC 2012-10-23 14:34:47
  Audio #2
    ID : 2
    Format : AAC
    Format/Info : Advanced Audio Codec
    Format profile : LC
    Codec ID : 40
    Duration : 1h 23mn
    Bit rate mode : Variable
    Bit rate : 128 Kbps
    Maximum bit rate : 159 Kbps
    Channel(s) : 2 channels
    Channel positions : Front: L R
    Sampling rate : 48.0 KHz
    Compression mode : Lossy
    Stream size : 76.7 MiB (16%)
    Encoded date : UTC 2012-10-23 14:34:42
    Tagged date : UTC 2012-10-23 14:34:47
x264.exe: --pass 2 --bitrate 680 --preset medium --level 3.0 --deblock -1:0 --merange 32 --direct auto --b-adapt 2 --b-pyramid none --trellis 2 --no-fast-pskip --no-dct-decimate --psy-rd 1.00:0.20 --partitions p8x8,b8x8,i4x4,p4x4 --no-8x8dct --subme 10 --me umh --no-mbtree --sar 1:1 --stats "D:\Temp\0016.log" --output "D:\Temp\0016.264" "D:\Temp\0016.avs"

avs [info]: 480x272p 1:1 @ 25/1 fps (cfr)
x264 [info]: using SAR=1/1
x264 [info]: using cpu capabilities: MMX2 SSE2Fast SSSE3 FastShuffle SSE4.2
x264 [info]: profile Main, level 3.0

x264 [info]: frame I:1372  Avg QP:15.76  size: 20304
x264 [info]: frame P:46004 Avg QP:19.24  size:  6082
x264 [info]: frame B:78226 Avg QP:21.12  size:  1525
x264 [info]: consecutive B-frames:  3.3% 23.9% 51.5% 21.4%
x264 [info]: mb I  I16..4: 35.3%  0.0% 64.7%
x264 [info]: mb P  I16..4:  3.6%  0.0%  5.8%  P16..4: 42.9% 26.6% 16.8%  1.4%  0.4%    skip: 2.5%
x264 [info]: mb B  I16..4:  0.2%  0.0%  0.5%  B16..8: 38.9% 10.5%  2.8%  direct: 6.7%  skip:40.2%  L0:35.7% L1:47.9% BI:16.4%
x264 [info]: direct mvs  spatial:93.8% temporal:6.2%
x264 [info]: coded y,uvDC,uvAC intra: 90.2% 88.8% 72.7% inter: 27.5% 37.1% 20.1%
x264 [info]: i16 v,h,dc,p: 21% 13% 27% 39%
x264 [info]: i4 v,h,dc,ddl,ddr,vr,hd,vl,hu:  9%  6%  4% 10% 15% 14% 13% 13% 15%
x264 [info]: i8c dc,h,v,p: 47% 19% 19% 16%
x264 [info]: Weighted P-Frames: Y:12.2% UV:5.9%
x264 [info]: ref P L0: 66.0% 11.2% 15.4%  6.8%  0.6%
x264 [info]: ref B L0: 84.5% 15.5%
x264 [info]: kb/s:679.88

x264 [total]: encoded 125602 frames, 23.74 fps, 679.88 kb/s
x264 [info]: final ratefactor: 18.89


Трекер:  [ 27-Окт-2012 16:04 ]

  

Скачать .torrent

Размер .torrent файла 19 KB


Размер: 486 MB
Хэш (hash) релиза: cdec05124c5a148f98336735fd0d5cf7181820fc
Подписка на обновления:

Еще никто не оставлял запись к записи скачать торрент Человек тьмы III. Умри, человек тьмы Darkman III: Die Darkman Die . Будь первым!

!Обратная связь