Скачать через торрент Человек тьмы II. Возвращение Дюранта Darkman II: The Return of Durant Фильм бесплатно в хорошем качестве torrent

Скачивайте на UnionPeer.org фильмы через торрент без регистрации. Новинки кино в хорошем качестве через торрент. На UnionPeer.org можно скачать через торрент фильмы 2014 и 2015 годов. Самые новые фильмы.

Скачать торрент Человек тьмы II. Возвращение Дюранта Darkman II: The Return of Durant бесплатно через .torrent фильм мультфильм сериал

Если у вас наблюдаются проблемы со скриншотами, переходом по ссылками, скачиванием торрентов - проблемы в блокировщике рекламы AdBlock. #хорошегоДня!


Статистика раздачи
Размер:  538 MB   |    Зарегистрирован:  4 года 11 месяцев   |    .torrent скачан:  91 раз   |   
Раздают:  1  
   
Загрузка...
 
Автор Сообщение

Galfimbul

avatar Galfimbul


Человек тьмы II. Возвращение Дюранта Darkman II: The Return of Durant
Оригинальное название: Darkman II: The Return of Durant
Год выпуска: 1994 г.
Страна: США
Жанр: боевик, триллер, фантастика
Продолжительность: 01:32:40
Перевод:

Профессиональный (многоголосый закадровый)

Cубтитры: нет
Режиссер: Брэдфорд Мэй / Bradford May
В ролях: Ларри Дрэйк, Арнольд Вослоу, Ким Делани, Рени О`Коннор, Лоуренс Дэйн, Джесси Коллинз, Дэвид Ферри, Джек Лангедийк, Стэн Ейрик
Описание: Злодей Роберт Дюрант остался жив. Он занимается все теми же гадостями: строительство, торговля оружием и наркотиками. Он делает «предложение» продать заводской корпус доктору Бринкману, которому удалось то, что не получалось у Человека Тьмы. Созданная доктором Бринкманом синтетическая кожа не исчезает после 99 минут. Даркмэн приносит результаты своей работы на дискете доктору Бринкману, а Дюрант в это время тоже не спит. Он сотрудничает с нехорошим ученым, который изобрел страшное оружие…
Качество видео: DVDRip
Формат: MP4
Видео кодек: H.264
Аудио кодек: AAC
Видео: 480x272 (16:9), 23.976 fps, x264 ~680 kbps avg, 0.217 bit/pixel
Аудио: AAC-LC CBR 2 channels, 48.0 KHz ~128 Kbps Профессиональный (многоголосый закадровый)
f:\Фильмы\PSP\Fantasy\Darkman II (1994)\Darkman II (1994).mp4
  General
    Complete name : f:\Фильмы\PSP\Fantasy\Darkman II (1994)\Darkman II (1994).mp4
    Format : MPEG-4
    Format profile : Base Media
    Codec ID : isom
    File size : 538 MiB
    Duration : 1h 32mn
    Overall bit rate mode : Variable
    Overall bit rate : 812 Kbps
    Encoded date : UTC 2012-10-21 17:47:56
    Tagged date : UTC 2012-10-21 17:47:56
    Writing application : Yamb 2.1.0.0
  Video #1
    ID : 1
    Format : AVC
    Format/Info : Advanced Video Codec
    Format profile : <a href="mailto:Main@L3.0" class="postLink">Main@L3.0</a>
    Format settings, CABAC : Yes
    Format settings, ReFrames : 3 frames
    Codec ID : avc1
    Codec ID/Info : Advanced Video Coding
    Duration : 1h 32mn
    Bit rate : 680 Kbps
    Maximum bit rate : 3 964 Kbps
    Width : 480 pixels
    Height : 272 pixels
    Display aspect ratio : 16:9
    Frame rate mode : Constant
    Frame rate : 23.976 fps
    Color space : YUV
    Chroma subsampling : 4:2:0
    Bit depth : 8 bits
    Scan type : Progressive
    Bits/(Pixel*Frame) : 0.217
    Stream size : 451 MiB (84%)
    Writing library : x264 core 125 r2208 d9d2288
    Encoding settings : cabac=1 / ref=3 / deblock=1:-2:0 / analyse=0x1:0x131 / me=umh / subme=10 / psy=1 / psy_rd=1.00:0.20 / mixed_ref=1 / me_range=16 / chroma_me=1 / trellis=2 / 8x8dct=0 / cqm=0 / deadzone=21,11 / fast_pskip=0 / chroma_qp_offset=-3 / threads=3 / lookahead_threads=1 / sliced_threads=0 / nr=0 / decimate=0 / interlaced=0 / bluray_compat=0 / constrained_intra=0 / bframes=3 / b_pyramid=0 / b_adapt=2 / b_bias=0 / direct=3 / weightb=1 / open_gop=0 / weightp=2 / keyint=250 / keyint_min=23 / scenecut=40 / intra_refresh=0 / rc_lookahead=60 / rc=2pass / mbtree=1 / bitrate=680 / ratetol=1.0 / qcomp=0.60 / qpmin=0 / qpmax=69 / qpstep=4 / cplxblur=20.0 / qblur=0.5 / ip_ratio=1.40 / aq=1:1.00
    Encoded date : UTC 2012-10-21 17:47:56
    Tagged date : UTC 2012-10-21 17:48:39
  Audio #2
    ID : 2
    Format : AAC
    Format/Info : Advanced Audio Codec
    Format profile : LC
    Codec ID : 40
    Duration : 1h 32mn
    Bit rate mode : Variable
    Bit rate : 128 Kbps
    Maximum bit rate : 151 Kbps
    Channel(s) : 2 channels
    Channel positions : Front: L R
    Sampling rate : 48.0 KHz
    Compression mode : Lossy
    Stream size : 84.8 MiB (16%)
    Encoded date : UTC 2012-10-21 17:48:33
    Tagged date : UTC 2012-10-21 17:48:39
x264.exe: --pass 2 --bitrate 680 --preset medium --level 3.0 --deblock -2:0 --direct auto --b-adapt 2 --b-pyramid none --trellis 2 --no-fast-pskip --no-dct-decimate --psy-rd 1.00:0.20 --partitions p8x8,b8x8,i4x4,p4x4 --no-8x8dct --subme 10 --me umh --rc-lookahead 60 --sar 1:1 --stats "D:\Temp\0010.log" --output "D:\Temp\0010.264" "D:\Temp\0010.avs"

avs [info]: 480x272p 1:1 @ 24000/1001 fps (cfr)
x264 [info]: using SAR=1/1
x264 [info]: using cpu capabilities: MMX2 SSE2Fast SSSE3 Cache64
x264 [info]: profile Main, level 3.0

x264 [info]: frame I:1467  Avg QP:16.55  size: 24764
x264 [info]: frame P:48221 Avg QP:20.78  size:  6483
x264 [info]: frame B:83620 Avg QP:24.07  size:  1478
x264 [info]: consecutive B-frames:  3.2% 18.6% 62.5% 15.7%
x264 [info]: mb I  I16..4: 46.8%  0.0% 53.2%
x264 [info]: mb P  I16..4:  2.9%  0.0%  4.5%  P16..4: 46.7% 20.7% 18.2%  1.7%  0.7%    skip: 4.5%
x264 [info]: mb B  I16..4:  0.3%  0.0%  0.6%  B16..8: 42.6%  8.2%  2.3%  direct: 4.8%  skip:41.2%  L0:37.7% L1:46.6% BI:15.7%
x264 [info]: direct mvs  spatial:79.7% temporal:20.3%
x264 [info]: coded y,uvDC,uvAC intra: 88.5% 89.8% 73.2% inter: 22.7% 30.2% 16.4%
x264 [info]: i16 v,h,dc,p: 22% 13% 23% 42%
x264 [info]: i4 v,h,dc,ddl,ddr,vr,hd,vl,hu:  7%  6%  4% 11% 15% 14% 14% 13% 15%
x264 [info]: i8c dc,h,v,p: 43% 20% 19% 18%
x264 [info]: Weighted P-Frames: Y:6.7% UV:4.3%
x264 [info]: ref P L0: 64.3% 12.6% 15.3%  7.4%  0.4%
x264 [info]: ref B L0: 87.4% 12.6%
x264 [info]: kb/s:679.98

x264 [total]: encoded 133308 frames, 12.53 fps, 679.98 kb/s
x264 [info]: final ratefactor: 18.27


Трекер:  [ 27-Окт-2012 16:02 ]

  

Скачать .torrent

Размер .torrent файла 11 KB


Размер: 538 MB
Хэш (hash) релиза: 23e9094c5e75c324a92277de11c1ed50ab819f98
Подписка на обновления:

Торренты, похожие на Человек тьмы II. Возвращение Дюранта Darkman II: The Return of Durant скачать торрент

Форум Название Автор Размер S L Добавлен
Зарубежные фильмы до 2016 ·· Человек тьмы II: Возвращение Дюранта / Darkman II: The Return of Durant (Брэдфорд Мэй / Bradford May) [1995, США, ужасы, фантастика, боевик, DVDRip] AVO (Гаврилов) Galfimbul 783765504747 MB 0 0 1365326900

12:28

7-Апр-13

Еще никто не оставлял запись к записи скачать торрент Человек тьмы II. Возвращение Дюранта Darkman II: The Return of Durant . Будь первым!

!Обратная связь