Скачать через торрент Исповедь невидимки Воспоминания человека-невидимки Фильм бесплатно в хорошем качестве torrent

Скачивайте на UnionPeer.org фильмы через торрент без регистрации. Новинки кино в хорошем качестве через торрент. На UnionPeer.org можно скачать через торрент фильмы 2014 и 2015 годов. Самые новые фильмы.

Скачать торрент Исповедь невидимки Воспоминания человека-невидимки бесплатно через .torrent фильм мультфильм сериал

Если у вас наблюдаются проблемы со скриншотами, переходом по ссылками, скачиванием торрентов - проблемы в блокировщике рекламы AdBlock. #хорошегоДня!


Статистика раздачи
Размер:  762 MB   |    Зарегистрирован:  5 лет   |    .torrent скачан:  39 раз   |   
Раздают:  1  
   
Загрузка...
 
Автор Сообщение

Galfimbul

avatar Galfimbul


Исповедь невидимки / Воспоминания человека-невидимки / Memoirs of an Invisible Man«An adventure like you've never seen»
Оригинальное название: Memoirs of an Invisible Man
Год выпуска: 1992 г.
Страна: США, Франция
Жанр: комедия, мелодрама, фантастика
Продолжительность: 01:39:05
Перевод:

Профессиональный (многоголосый закадровый)
Профессиональный (двухголосый закадровый) НТВ+
Профессиональный (двухголосый закадровый) ОРТ

Cубтитры: нет
Режиссер: Джон Карпентер / John Carpenter
В ролях: Чеви Чейз, Дэрил Ханна, Сэм Нил, Майкл МакКин, Стивен Тоболовски, Джим Нортон, Пэт Скиппер, Пол Перри, Ричард Эпкар, Стив Барр
Описание: В результате взрыва в научной лаборатории главный герой фильма становится невидимым. Это переворачивает всю его жизнь; циничные сотрудники ЦРУ начинают охоту на него, однако с помощью очаровательной подружки ему удается выйти победителем из схватки с негодяями.
1. запускаем видео файл
2. в любой момент жмём кнопку ( открывается панель управления )
3. там выбираем звуковые параметры
4. жмём кнопку Х ( осуществляется переключение звуковой дорожки, при этом на экране отражается ее номер - 1,2 и т.д. )

* проигрывается на PSP с любой прошивкой *
Качество видео: HDRip
Формат: MP4
Видео кодек: H.264
Аудио кодек: AAC
Видео: 480x208 (2.35:1), 23.976 fps, x264 ~680 kbps avg, 0.284 bit/pixel
Аудио 1: AAC-LC CBR 2 channels, 48.0 KHz ~128 Kbps Профессиональный (многоголосый закадровый)
Аудио 2: AAC-LC CBR 2 channels, 48.0 KHz ~128 Kbps Профессиональный (двухголосый закадровый) НТВ+
Аудио 3: AAC-LC CBR 2 channels, 48.0 KHz ~128 Kbps Профессиональный (двухголосый закадровый) ОРТ
f:\Фильмы\PSP\Fantasy\Memoirs of an Invisible Man (1992)\Memoirs of an Invisible Man (1992).mp4
  General
    Complete name : f:\Фильмы\PSP\Fantasy\Memoirs of an Invisible Man (1992)\Memoirs of an Invisible Man (1992).mp4
    Format : MPEG-4
    Format profile : Base Media
    Codec ID : isom
    File size : 762 MiB
    Duration : 1h 39mn
    Overall bit rate : 1 075 Kbps
    Writing application : XviD4PSP 6.0 / 54.29.105
  Video #1
    ID : 1
    Format : AVC
    Format/Info : Advanced Video Codec
    Format profile : <a href="mailto:Main@L3.0" class="postLink">Main@L3.0</a>
    Format settings, CABAC : Yes
    Format settings, ReFrames : 3 frames
    Codec ID : avc1
    Codec ID/Info : Advanced Video Coding
    Duration : 1h 39mn
    Bit rate : 680 Kbps
    Width : 480 pixels
    Height : 208 pixels
    Display aspect ratio : 2.35:1
    Frame rate mode : Constant
    Frame rate : 23.976 fps
    Color space : YUV
    Chroma subsampling : 4:2:0
    Bit depth : 8 bits
    Scan type : Progressive
    Bits/(Pixel*Frame) : 0.284
    Stream size : 482 MiB (63%)
    Writing library : x264 core 125 r2208 d9d2288
    Encoding settings : cabac=1 / ref=3 / deblock=0:0:0 / analyse=0x1:0x131 / me=tesa / subme=11 / psy=1 / psy_rd=1.00:0.20 / mixed_ref=1 / me_range=32 / chroma_me=1 / trellis=2 / 8x8dct=0 / cqm=0 / deadzone=21,11 / fast_pskip=0 / chroma_qp_offset=-3 / threads=3 / lookahead_threads=1 / sliced_threads=0 / nr=0 / decimate=0 / interlaced=0 / bluray_compat=0 / constrained_intra=0 / bframes=3 / b_pyramid=0 / b_adapt=2 / b_bias=0 / direct=3 / weightb=1 / open_gop=0 / weightp=2 / keyint=250 / keyint_min=23 / scenecut=40 / intra_refresh=0 / rc=2pass / mbtree=0 / bitrate=680 / ratetol=1.0 / qcomp=0.60 / qpmin=0 / qpmax=69 / qpstep=4 / cplxblur=20.0 / qblur=0.5 / ip_ratio=1.40 / pb_ratio=1.30 / aq=1:1.00
  Audio #2
    ID : 2
    Format : AAC
    Format/Info : Advanced Audio Codec
    Format profile : LC
    Codec ID : 40
    Duration : 1h 39mn
    Bit rate mode : Constant
    Bit rate : 128 Kbps
    Channel(s) : 2 channels
    Channel positions : Front: L R
    Sampling rate : 48.0 KHz
    Compression mode : Lossy
    Stream size : 90.7 MiB (12%)
  Audio #3
    ID : 3
    Format : AAC
    Format/Info : Advanced Audio Codec
    Format profile : LC
    Codec ID : 40
    Duration : 1h 39mn
    Bit rate mode : Constant
    Bit rate : 128 Kbps
    Channel(s) : 2 channels
    Channel positions : Front: L R
    Sampling rate : 48.0 KHz
    Compression mode : Lossy
    Stream size : 90.7 MiB (12%)
  Audio #4
    ID : 4
    Format : AAC
    Format/Info : Advanced Audio Codec
    Format profile : LC
    Codec ID : 40
    Duration : 1h 38mn
    Bit rate mode : Constant
    Bit rate : 128 Kbps
    Channel(s) : 2 channels
    Channel positions : Front: L R
    Sampling rate : 48.0 KHz
    Compression mode : Lossy
    Stream size : 90.5 MiB (12%)
x264.exe: --pass 2 --bitrate 680 --preset medium --level 3.0 --no-deblock --merange 32 --direct auto --b-adapt 2 --b-pyramid none --trellis 2 --no-fast-pskip --no-dct-decimate --psy-rd 1.00:0.20 --partitions p8x8,b8x8,i4x4,p4x4 --no-8x8dct --subme 11 --me tesa --no-mbtree --sar 1:1 --stats "D:\Boris\Mem123.log" --output "D:\Boris\Mem123.mp4" "D:\Temp\0009.avs"

avs [info]: 480x208p 1:1 @ 24000/1001 fps (cfr)
x264 [info]: using SAR=1/1
x264 [info]: using cpu capabilities: MMX2 SSE2Fast SSSE3 FastShuffle SSE4.2
x264 [info]: profile Main, level 3.0

x264 [info]: frame I:1138  Avg QP:15.05  size: 20969
x264 [info]: frame P:52536 Avg QP:18.29  size:  6288
x264 [info]: frame B:88887 Avg QP:20.00  size:  1699
x264 [info]: consecutive B-frames:  3.3% 25.3% 46.7% 24.7%
x264 [info]: mb I  I16..4: 29.6%  0.0% 70.4%
x264 [info]: mb P  I16..4:  1.8%  0.0%  3.6%  P16..4: 25.1% 34.0% 18.5% 11.5%  1.8%    skip: 3.7%
x264 [info]: mb B  I16..4:  0.1%  0.0%  0.3%  B16..8: 31.5% 23.5%  5.7%  direct: 6.5%  skip:32.4%  L0:34.9% L1:43.0% BI:22.1%
x264 [info]: direct mvs  spatial:85.9% temporal:14.1%
x264 [info]: coded y,uvDC,uvAC intra: 96.1% 89.7% 75.0% inter: 33.3% 23.9% 12.4%
x264 [info]: i16 v,h,dc,p: 12%  6% 39% 42%
x264 [info]: i4 v,h,dc,ddl,ddr,vr,hd,vl,hu: 13%  8%  5%  9% 13% 14% 12% 12% 14%
x264 [info]: i8c dc,h,v,p: 43% 24% 21% 12%
x264 [info]: Weighted P-Frames: Y:8.4% UV:2.7%
x264 [info]: ref P L0: 59.6% 13.6% 17.4%  8.9%  0.6%
x264 [info]: ref B L0: 82.7% 17.3%
x264 [info]: kb/s:679.82

x264 [total]: encoded 142561 frames, 7.96 fps, 679.82 kb/s
x264 [info]: final ratefactor: 17.92


Трекер:  [ 27-Окт-2012 16:00 ]

  

Скачать .torrent

Размер .torrent файла 15 KB


Размер: 762 MB
Хэш (hash) релиза: 620a30a795445ccb55ec9cd1825f095898263414
Подписка на обновления:

Торренты, похожие на Исповедь невидимки Воспоминания человека-невидимки скачать торрент

Форум Название Автор Размер S L Добавлен
Зарубежные фильмы до 2016 ·· Исповедь невидимки / Воспоминания человека-невидимки / Memoirs of an Invisible Man (Джон Карпентер / John Carpenter) [1992, США, Франция, комедия, мелодрама, фантастика, BDRip] MVO + DVO(НТВ+) + AVO(Гаврилов) + Orig + Sub(rus) Galfimbul 23490515052.19 GB 0 0 1365316655

09:37

7-Апр-13

Зарубежные фильмы до 2016 ·· Исповедь невидимки / Воспоминания человека-невидимки / Memoirs of an Invisible Man (Джон Карпентер / John Carpenter) [1992, США, Франция, комедия, мелодрама, фантастика, BDRip] MVO + AVO(Королёв) + AVO (Горчаков) Galfimbul 10654831361016 MB 0 0 1350734520

15:02

20-Окт-12

Зарубежные фильмы до 2016 ·· Исповедь невидимки / Воспоминания человека-невидимки / Memoirs of an Invisible Man (Джон Карпентер / John Carpenter) [1992, США, Франция, комедия, мелодрама, фантастика, BDRip] AVO(Гаврилов) Galfimbul 780099584744 MB 0 0 1350734700

15:05

20-Окт-12

Зарубежные фильмы до 2016 ·· Исповедь невидимки / Воспоминания человека-невидимки / Memoirs of an Invisible Man (Джон Карпентер / John Carpenter) [1992, фантастика, триллер, мелодрама, комедия, BDRip] DVO Galfimbul 15653703681.46 GB 0 0 1349711760

18:56

8-Окт-12

Еще никто не оставлял запись к записи скачать торрент Исповедь невидимки Воспоминания человека-невидимки . Будь первым!

!Обратная связь