Скачать через торрент музыку Snew - Whats It To Ya - 2012, FLAC бесплатно без регистрации torrent

Если у вас наблюдаются проблемы со скриншотами, переходом по ссылками, скачиванием торрентов - проблемы в блокировщике рекламы AdBlock. #хорошегоДня!


Статистика раздачи
Размер:  417 MB   |    Зарегистрирован:  5 лет   |    .torrent скачан:  9 раз   |   
Раздают:  1  
   
Загрузка...
 
Автор Сообщение

Galfimbul

avatar Galfimbul


Snew / What's It To Ya

Жанр: Hard Rock
Страна-производитель диска: Russia
Год издания: 2012
Издатель (лейбл): Пирато & Бандито
Страна: USA
Аудиокодек: FLAC (*.flac)
Тип рипа: image+.cue
Битрейт аудио: lossless
Продолжительность: 41'00''
Источник (релизер): Диск свой, рип свой
Наличие сканов в содержимом раздачи: да
Треклист:
CD: Snew - What's It To Ya

01. Release The Beast [0:03:39.30]
02. I Got A Rocket [0:04:26.28]
03. Pull My Stinger [0:03:48.55]
04. Electrolux [0:04:10.44]
05. Tearin Up Your City [0:03:36.04]
06. Clever Girl [0:04:49.07]
07. Unglued [0:03:43.54]
08. Bad Words [0:04:27.46]
09. What's It To Ya [0:04:09.35]
10. I'm All Over You [0:04:06.18]
Exact Audio Copy V1.0 beta 3 from 29. August 2011

Отчёт EAC об извлечении, выполненном 25. октября 2012, 16:26

Snew / What's It To Ya

Дисковод: PLEXTOR DVDR PX-750A Adapter: 1 ID: 0

Режим чтения : ДостоверностьИспользование точного потока : ДаОтключение кэша аудио : ДаИспользование указателей C2 : Нет

Коррекция смещения при чтении : 102Способность читать области Lead-in и Lead-out : НетЗаполнение пропущенных сэмплов тишиной : ДаУдаление блоков с тишиной в начале и конце : НетПри вычислениях CRC использовались нулевые сэмплы : ДаИнтерфейс : Встроенный Win32-интерфейс для Win NT/2000

Выходной формат : Пользовательский кодировщикВыбранный битрейт : 896 kBit/sКачество : ВысокийДобавление ID3-тега : ДаУтилита сжатия : C:\Program Files\Exact Audio Copy\FLAC\FLAC.EXEДополнительные параметры : -6 -V -T "ARTIST=%artist%" -T "TITLE=%title%" -T "ALBUM=%albumtitle%" -T "DATE=%year%" -T "TRACKNUMBER=%tracknr%" -T "GENRE=%genre%" -T "COMMENT=%comment%" -T "BAND=%albuminterpret%" -T "ALBUMARTIST=%albuminterpret%" -T "COMPOSER=%composer%" %haslyrics%--tag-from-file=LYRICS="%lyricsfile%"%haslyrics% -T "DISCNUMBER=%cdnumber%" -T "TOTALDISCS=%totalcds%" -T "TOTALTRACKS=%numtracks%" %hascover%--picture="%coverfile%"%hascover% %source% -o %dest%

TOC извлечённого CD

Трек | Старт | Длительность | Начальный сектор | Конечный сектор --------------------------------------------------------------------- 1 | 0:00.00 | 3:39.30 | 0 | 16454 2 | 3:39.30 | 4:26.28 | 16455 | 36432 3 | 8:05.58 | 3:48.55 | 36433 | 53587 4 | 11:54.38 | 4:10.44 | 53588 | 72381 5 | 16:05.07 | 3:36.04 | 72382 | 88585 6 | 19:41.11 | 4:49.07 | 88586 | 110267 7 | 24:30.18 | 3:43.54 | 110268 | 127046 8 | 28:13.72 | 4:27.46 | 127047 | 147117 9 | 32:41.43 | 4:09.35 | 147118 | 165827 10 | 36:51.03 | 4:06.18 | 165828 | 184295

Характеристики диапазона извлечения и сообщения об ошибках

Выбранный диапазон

Имя файла C:\Documents and Settings\Admin\Рабочий стол\Snew - What's It To Ya - 2012 - 41'00''\Snew - What's It To Ya.wav

Копирование прервано

Конец отчёта

==== Контрольная сумма отчёта A3855C51C9A84ADAC90E29FCADB38CE69BFA3AE28357F565241239C9DC6A37C3 ====

------------------------------------------------------------

Exact Audio Copy V1.0 beta 3 from 29. August 2011

Отчёт EAC об извлечении, выполненном 25. октября 2012, 19:04

Snew / What's It To Ya

Дисковод: PLEXTOR DVDR PX-750A Adapter: 1 ID: 1

Режим чтения : ДостоверностьИспользование точного потока : ДаОтключение кэша аудио : ДаИспользование указателей C2 : Нет

Коррекция смещения при чтении : 102Способность читать области Lead-in и Lead-out : НетЗаполнение пропущенных сэмплов тишиной : ДаУдаление блоков с тишиной в начале и конце : НетПри вычислениях CRC использовались нулевые сэмплы : ДаИнтерфейс : Встроенный Win32-интерфейс для Win NT/2000

Выходной формат : Пользовательский кодировщикВыбранный битрейт : 896 kBit/sКачество : ВысокийДобавление ID3-тега : ДаУтилита сжатия : C:\Program Files\Exact Audio Copy\FLAC\FLAC.EXEДополнительные параметры : -6 -V -T "ARTIST=%artist%" -T "TITLE=%title%" -T "ALBUM=%albumtitle%" -T "DATE=%year%" -T "TRACKNUMBER=%tracknr%" -T "GENRE=%genre%" -T "COMMENT=%comment%" -T "BAND=%albuminterpret%" -T "ALBUMARTIST=%albuminterpret%" -T "COMPOSER=%composer%" %haslyrics%--tag-from-file=LYRICS="%lyricsfile%"%haslyrics% -T "DISCNUMBER=%cdnumber%" -T "TOTALDISCS=%totalcds%" -T "TOTALTRACKS=%numtracks%" %hascover%--picture="%coverfile%"%hascover% %source% -o %dest%

TOC извлечённого CD

Трек | Старт | Длительность | Начальный сектор | Конечный сектор --------------------------------------------------------------------- 1 | 0:00.00 | 3:39.30 | 0 | 16454 2 | 3:39.30 | 4:26.28 | 16455 | 36432 3 | 8:05.58 | 3:48.55 | 36433 | 53587 4 | 11:54.38 | 4:10.44 | 53588 | 72381 5 | 16:05.07 | 3:36.04 | 72382 | 88585 6 | 19:41.11 | 4:49.07 | 88586 | 110267 7 | 24:30.18 | 3:43.54 | 110268 | 127046 8 | 28:13.72 | 4:27.46 | 127047 | 147117 9 | 32:41.43 | 4:09.35 | 147118 | 165827 10 | 36:51.03 | 4:06.18 | 165828 | 184295

Характеристики диапазона извлечения и сообщения об ошибках

Выбранный диапазон

Имя файла C:\Documents and Settings\Admin\Рабочий стол\Snew - What's It To Ya - 2012 - 41'00''\Snew - What's It To Ya.wav

Пиковый уровень 100.0 % Скорость извлечения 0.3 X Качество диапазона 99.7 % CRC теста 1771622E CRC копии 1771622E Копирование... OK

Ошибок не произошло

Конец отчёта

==== Контрольная сумма отчёта 3B74A281319EA8E76C2B9217B2301115BCFD38F7EB5A7E6DC254E7F005EDC92A ====
-----------------------

DON'T MODIFY THIS FILE

-----------------------

PERFORMER: auCDtect Task Manager, ver. 1.5.1RC4 build 1.5.1.5Copyright (c) 2008-2010 y-soft. All rights reservedhttp://y-soft.org

ANALYZER: auCDtect: CD records authenticity detector, version 0.8.2Copyright (c) 2004 Oleg Berngardt. All rights reserved.Copyright (c) 2004 Alexander Djourik. All rights reserved.

FILE: Snew - What's It To Ya.flac Size: 323128630 Hash: 05D1A6E3B9F563C3C42B37986F5C9484 Accuracy: -m0 Conclusion: CDDA 100% Signature: B842423989D240257803EF006FC91B0CCEFCE417
Доп. информация: Второй альбом хард-рок-драйв банды Snew! (1й выходил в 2010м)
Кому-как, а многим эта команда пришлась по душе!
Добро Пожаловать!
Curtis Don Vito - Vocals, Harmonica
Mark Ohrenberger - Drums
Andy Lux - Guitar
Willie Basse - Bass
Paul Ill - Bass on tracks 2 &8


Трекер:  [ 27-Окт-2012 13:54 ]

  

Скачать .torrent

Размер .torrent файла 17 KB


Размер: 417 MB
Хэш (hash) релиза: ac921ff90671e9f9a8db818db5b6a0e7b3daded6

Еще никто не оставлял запись к записи скачать торрент Snew - Whats It To Ya - 2012, FLAC . Будь первым!

!Обратная связь