Скачать через торрент музыку Roger Taylor бесплатно без регистрации torrent

Если у вас наблюдаются проблемы со скриншотами, переходом по ссылками, скачиванием торрентов - проблемы в блокировщике рекламы AdBlock. #хорошегоДня!


Статистика раздачи
Размер:  331 MB   |    Зарегистрирован:  4 года 9 месяцев   |    .torrent скачан:  23 раза   |   
Раздают:  1  
   
Загрузка...
 
Автор Сообщение

Galfimbul

avatar Galfimbul


Roger Taylor (Queen, The Cross) / Happiness?

Жанр: Rock
Страна-производитель диска: Made in EU / Printed in Italy
Год издания: 1994
Издатель (лейбл): Parlophone
Номер по каталогу: 7243 8 30059 2 5
Страна: UK
Аудиокодек: FLAC (*.flac)
Тип рипа: image+.cue
Битрейт аудио: lossless
Продолжительность: 48:21
Источник (релизер): Собственный рип
Наличие сканов в содержимом раздачи: да
Треклист:
01 Nazis 1994 [02:35]
02 Happiness [03:17]
03 Revelations [03:44]
04 Touch The Sky [05:04]
05 Foreign Sand [06:53]
06 Freedom Train [06:12]
07 ''You Had To Be There'' [02:55]
08 The Key [04:25]
09 Everybody Hurts Sometime [02:52]
10 Loneliness... [02:25]
11 Dear Mr Murdoch [04:19]
12 Old Friends [03:33]
Exact Audio Copy V1.0 beta 3 from 29. August 2011

Отчёт EAC об извлечении, выполненном 26. октября 2012, 14:09

Roger Taylor / Happiness?

Дисковод: PIONEER DVD-RW DVR-218L Adapter: 0 ID: 1

Режим чтения : ДостоверностьИспользование точного потока : ДаОтключение кэша аудио : ДаИспользование указателей C2 : Нет

Коррекция смещения при чтении : 6Способность читать области Lead-in и Lead-out : НетЗаполнение пропущенных сэмплов тишиной : ДаУдаление блоков с тишиной в начале и конце : НетПри вычислениях CRC использовались нулевые сэмплы : ДаИнтерфейс : Встроенный Win32-интерфейс для Win NT/2000

Выходной формат : Пользовательский кодировщикВыбранный битрейт : 896 kBit/sКачество : ВысокийДобавление ID3-тега : ДаУтилита сжатия : C:\Program Files\Exact Audio Copy\FLAC\FLAC.EXEДополнительные параметры : -6 -V -T "ARTIST=%artist%" -T "TITLE=%title%" -T "ALBUM=%albumtitle%" -T "DATE=%year%" -T "TRACKNUMBER=%tracknr%" -T "GENRE=%genre%" -T "COMMENT=%comment%" -T "BAND=%albuminterpret%" -T "ALBUMARTIST=%albuminterpret%" -T "COMPOSER=%composer%" %haslyrics%--tag-from-file=LYRICS="%lyricsfile%"%haslyrics% -T "DISCNUMBER=%cdnumber%" -T "TOTALDISCS=%totalcds%" -T "TOTALTRACKS=%numtracks%" %hascover%--picture="%coverfile%"%hascover% %source% -o %dest%

TOC извлечённого CD

Трек | Старт | Длительность | Начальный сектор | Конечный сектор --------------------------------------------------------------------- 1 | 0:00.33 | 2:35.37 | 33 | 11694 2 | 2:35.70 | 3:17.25 | 11695 | 26494 3 | 5:53.20 | 3:44.20 | 26495 | 43314 4 | 9:37.40 | 5:04.63 | 43315 | 66177 5 | 14:42.28 | 6:53.70 | 66178 | 97222 6 | 21:36.23 | 6:12.45 | 97223 | 125167 7 | 27:48.68 | 2:55.50 | 125168 | 138342 8 | 30:44.43 | 4:25.47 | 138343 | 158264 9 | 35:10.15 | 2:52.60 | 158265 | 171224 10 | 38:03.00 | 2:25.48 | 171225 | 182147 11 | 40:28.48 | 4:19.62 | 182148 | 201634 12 | 44:48.35 | 3:33.18 | 201635 | 217627

Характеристики диапазона извлечения и сообщения об ошибках

Выбранный диапазон

Имя файла C:\Users\Александр\Desktop\Torrent Downloads\Roger Taylor - Happiness.wav

Пиковый уровень 99.4 % Скорость извлечения 1.7 X Качество диапазона 99.9 % CRC копии 708BCCE1 Копирование... OK

Ошибок не произошло

AccurateRip: сводка

Трек 1 : извлечено точно (доверие 2) [2361FCD0] (AR v2)Трек 2 : извлечено точно (доверие 2) [350393EF] (AR v2)Трек 3 : извлечено точно (доверие 2) [B96B18C5] (AR v2)Трек 4 : извлечено точно (доверие 2) [394A7756] (AR v2)Трек 5 : извлечено точно (доверие 2) [D5CD88C1] (AR v2)Трек 6 : извлечено точно (доверие 2) [EA8089D3] (AR v2)Трек 7 : извлечено точно (доверие 2) [3E459C8D] (AR v2)Трек 8 : извлечено точно (доверие 2) [A935FA29] (AR v2)Трек 9 : извлечено точно (доверие 2) [CC119CA7] (AR v2)Трек 10 : извлечено точно (доверие 2) [304486C0] (AR v2)Трек 11 : извлечено точно (доверие 2) [DD797625] (AR v2)Трек 12 : извлечено точно (доверие 2) [D2A821A4] (AR v2)

Все треки извлечены точно

Конец отчёта

---- CUETools DB Plugin V2.1.3

[CTDB TOCID: yIj1WoVmZ14tlXyGpKsLCfyFLc8-] disk not present in database, Submit result: discs with pregaps not supported in this protocol version
REM GENRE RockREM DATE 1994REM DISCID AB0B550CREM COMMENT "ExactAudioCopy v1.0b3"PERFORMER "Roger Taylor"TITLE "Happiness?"FILE "Roger Taylor - Happiness.flac" WAVE TRACK 01 AUDIO TITLE "Nazis 1994" PERFORMER "Roger Taylor" INDEX 00 00:00:00 INDEX 01 00:00:33 TRACK 02 AUDIO TITLE "Happiness" PERFORMER "Roger Taylor" INDEX 00 02:35:68 INDEX 01 02:35:70 TRACK 03 AUDIO TITLE "Revelations" PERFORMER "Roger Taylor" INDEX 00 05:53:18 INDEX 01 05:53:20 TRACK 04 AUDIO TITLE "Touch The Sky" PERFORMER "Roger Taylor" INDEX 00 09:37:38 INDEX 01 09:37:40 TRACK 05 AUDIO TITLE "Foreign Sand" PERFORMER "Roger Taylor" INDEX 00 14:42:25 INDEX 01 14:42:28 TRACK 06 AUDIO TITLE "Freedom Train" PERFORMER "Roger Taylor" INDEX 00 21:36:20 INDEX 01 21:36:23 TRACK 07 AUDIO TITLE "You Had To Be There" PERFORMER "Roger Taylor" INDEX 00 27:48:65 INDEX 01 27:48:68 TRACK 08 AUDIO TITLE "The Key" PERFORMER "Roger Taylor" INDEX 00 30:44:40 INDEX 01 30:44:43 TRACK 09 AUDIO TITLE "Everybody Hurts Sometimes" PERFORMER "Roger Taylor" INDEX 00 35:10:03 INDEX 01 35:10:15 TRACK 10 AUDIO TITLE "Loneliness..." PERFORMER "Roger Taylor" INDEX 00 38:02:73 INDEX 01 38:03:00 TRACK 11 AUDIO TITLE "Dear Mr Murdoch" PERFORMER "Roger Taylor" INDEX 00 40:28:45 INDEX 01 40:28:48 TRACK 12 AUDIO TITLE "Old Friends" PERFORMER "Roger Taylor" INDEX 00 44:47:48 INDEX 01 44:48:35
Доп. информация: Сделан по просьбе Camerado на замену выложенному им рипу скачанного из сети.

Трекер:  [ 27-Окт-2012 13:54 ]

  

Скачать .torrent

Размер .torrent файла 14 KB


Размер: 331 MB
Хэш (hash) релиза: 217f3052853d93df36122cae5a0b9456a63857c5

Торренты, похожие на Roger Taylor скачать торрент

Форум Название Автор Размер S L Добавлен
Rосk | Mеtаl | Аltеrnаtivе, Рunk, Indереndеnt (mр3) ·· (Rock) Roger Taylor - Дискография (5 альбомов, 6 синглов, 3 промо, 1 сборник, 1 бокс) - 1981-2014, MP3 (tracks), 320 kbps Galfimbul 28495029342.65 GB 0 0 1430740101

14:48

4-Май-15

Rосk | Mеtаl | Аltеrnаtivе, Рunk, Indереndеnt (mр3) ·· (Rock) Roger Taylor - Best - 2014, MP3, 320 kbps Galfimbul 176095265168 MB 0 0 1415889024

17:30

13-Ноя-14

Rосk | Mеtаl | Аltеrnаtivе, Рunk, Indереndеnt (losslеss) ·· (Rock) [CD] Roger Taylor - The Lot (Box Set 12CD+DVD) - 2013, FLAC (image+.cue), lossless Galfimbul 49706186794.63 GB 0 0 1389451366

17:42

11-Янв-14

Rосk | Mеtаl | Аltеrnаtivе, Рunk, Indереndеnt (losslеss) ·· (Rock) Roger Taylor - Pressure On (CDS) - 1998 (Parlophone – 7243 8 86123 2 6, Parlophone – CDR 6507, UK), APE (image+.cue), lossless uzi2009 10116044696 MB 0 0 1323980608

23:23

15-Дек-11

Rосk | Mеtаl | Аltеrnаtivе, Рunk, Indереndеnt (losslеss) ·· (Rock) The Cross (Roger Taylor, Queen) - MAD : BAD : and dangerous to know - 1990, APE (image+.cue), lossless Galfimbul 287586308274 MB 0 0 1297876372

20:12

16-Фев-11

Rосk | Mеtаl | Аltеrnаtivе, Рunk, Indереndеnt (losslеss) ·· (Rock) The Cross (Roger Taylor) - Shove It (Virgin USA, 7 90857-2) - 1988, FLAC (image+.cue) lossless Galfimbul 412208242393 MB 0 0 1297876150

20:09

16-Фев-11

Rосk | Mеtаl | Аltеrnаtivе, Рunk, Indереndеnt (losslеss) ·· (Rock) Roger Taylor - Electric Fire (EMI, 7243 4 96724 0 6) - 1998, FLAC (image+.cue) lossless Galfimbul 463811715442 MB 0 0 1297876091

20:08

16-Фев-11

Rосk | Mеtаl | Аltеrnаtivе, Рunk, Indереndеnt (losslеss) ·· (Rock) Roger Taylor - Fun In Space (EMI, 7243 8 38201 2 2, 1996 remastered) - 1981, FLAC (image+.cue) lossless Galfimbul 369043501352 MB 0 0 1297876076

20:07

16-Фев-11

Rосk | Mеtаl | Аltеrnаtivе, Рunk, Indереndеnt (losslеss) ·· (Rock) The Cross (Roger Taylor) - Blue Rock (EMI, 1C 564-7 97624 2) - 1991, FLAC (image+.cue) lossless Galfimbul 482742097460 MB 0 0 1297876045

20:07

16-Фев-11

Rосk | Mеtаl | Аltеrnаtivе, Рunk, Indереndеnt (losslеss) ·· (Rock) Roger Taylor - Strange Frontier (EMI, 7243 8 38202 2 1, 1996 remastered) - 1984, FLAC (image+.cue) lossless Galfimbul 416157318397 MB 0 0 1297875958

20:05

16-Фев-11

Rосk | Mеtаl | Аltеrnаtivе, Рunk, Indереndеnt (losslеss) ·· (Rock) The Cross - Shove It (Roger Taylor,ex-Queen) - 1988, FLAC (image + .cue) lossless Galfimbul 298602155285 MB 0 0 1297875900

20:05

16-Фев-11

Еще никто не оставлял запись к записи скачать торрент Roger Taylor . Будь первым!

!Обратная связь