Скачать через торрент музыку Рыцарь дня Knight And Day бесплатно без регистрации torrent

Если у вас наблюдаются проблемы со скриншотами, переходом по ссылками, скачиванием торрентов - проблемы в блокировщике рекламы AdBlock. #хорошегоДня!


Статистика раздачи
Размер:  325 MB   |    Зарегистрирован:  6 лет 9 месяцев   |    .torrent скачан:  98 раз   |   
Раздают:  1  
   
Загрузка...
 
Автор Сообщение

Dxe

avatar Dxe


Рыцарь дня / Knight And Day


Жанр: Score
Композитор: John Powell
Год выпуска диска / фильма: 2010
Страна-производитель диска: США
Издатель (лейбл): Varese Sarabande
Номер по каталогу: 302 067 034 2
Аудио кодек: FLAC (*.flac)
Тип рипа: tracks+.cue
Битрейт аудио: lossless
Продолжительность: 00:54:52
сайт-источник/ник/другое: what.cd (Atemu)
Наличие сканов в содержимом раздачи: нет
Треклист:
1. At The Airport (4:42)
2. Rough Landing (3:45)
3. Trouble On I-93 (4:06)
4. Running From Roy (2:21)
5. Hostage (3:34)
6. Car Ferry (1:34)
7. To the Island of Love (4:21)
8. In Austria (1:32)
9. Galley Fight (3:38)
10. Five Star (2:16)
11. June Spies (3:28)
12. He's A Spy (1:13)
13. Rooftops (3:20)
14. The Villa (2:27)
15. Reunion (4:26)
16. Bull Run (4:55)
17. Going To Cape Horn? Take a Jacket (3:07)

Код:

Exact Audio Copy V0.99 prebeta 5 from 4. May 2009

EAC extraction logfile from 3. August 2010, 13:39

John Powell / Knight And Day

Used drive  : LITE-ON DVD SHD-16P1S   Adapter: 0  ID: 0

Read mode               : Secure
Utilize accurate stream : Yes
Defeat audio cache      : Yes
Make use of C2 pointers : No

Read offset correction                      : 6
Overread into Lead-In and Lead-Out          : No
Fill up missing offset samples with silence : Yes
Delete leading and trailing silent blocks   : No
Null samples used in CRC calculations       : Yes
Used interface                              : Installed external ASPI interface
Gap handling                                : Appended to previous track

Used output format              : User Defined Encoder
Selected bitrate                : 320 kBit/s
Quality                         : High
Add ID3 tag                     : No
Command line compressor         : C:\Program Files\FLAC\flac.exe
Additional command line options : -V -8 -T "artist=%a" -T "title=%t" -T "album=%g" -T "date=%y" -T "tracknumber=%n" -T "genre=%m" %s

TOC of the extracted CD

     Track |   Start  |  Length  | Start sector | End sector
    ---------------------------------------------------------
        1  |  0:00.07 |  4:42.20 |         7    |    21176
        2  |  4:42.27 |  3:45.10 |     21177    |    38061
        3  |  8:27.37 |  4:06.12 |     38062    |    56523
        4  | 12:33.49 |  2:21.03 |     56524    |    67101
        5  | 14:54.52 |  3:34.30 |     67102    |    83181
        6  | 18:29.07 |  1:34.67 |     83182    |    90298
        7  | 20:03.74 |  4:22.00 |     90299    |   109948
        8  | 24:25.74 |  1:31.51 |    109949    |   116824
        9  | 25:57.50 |  3:38.54 |    116825    |   133228
       10  | 29:36.29 |  2:16.10 |    133229    |   143438
       11  | 31:52.39 |  3:29.67 |    143439    |   159180
       12  | 35:22.31 |  1:13.73 |    159181    |   164728
       13  | 36:36.29 |  3:22.72 |    164729    |   179950
       14  | 39:59.26 |  2:29.50 |    179951    |   191175
       15  | 42:29.01 |  4:28.20 |    191176    |   211295
       16  | 46:57.21 |  4:51.58 |    211296    |   233178
       17  | 51:49.04 |  3:02.49 |    233179    |   246877

Track  1

     Filename D:\Musiques\John Powell\Knight And Day\FLAC\01 At The Airport.wav

     Pre-gap length  0:00:02.09

     Peak level 94.4 %
     Track quality 99.9 %
     Test CRC 86C70C27
     Copy CRC 86C70C27
     Track not present in AccurateRip database
     Copy OK

Track  2

     Filename D:\Musiques\John Powell\Knight And Day\FLAC\02 Rough Landing.wav

     Peak level 99.5 %
     Track quality 99.9 %
     Test CRC 5ABE4AD7
     Copy CRC 14853E31
     Track not present in AccurateRip database
     Copy OK

Track  3

     Filename D:\Musiques\John Powell\Knight And Day\FLAC\03 Trouble On I-93.wav

     Peak level 94.4 %
     Track quality 100.0 %
     Test CRC 6D51B0C0
     Copy CRC 6F8645D7
     Track not present in AccurateRip database
     Copy OK

Track  4

     Filename D:\Musiques\John Powell\Knight And Day\FLAC\04 Running From Roy.wav

     Peak level 94.4 %
     Track quality 100.0 %
     Test CRC 5C77F65F
     Copy CRC 5C77F65F
     Track not present in AccurateRip database
     Copy OK

Track  5

     Filename D:\Musiques\John Powell\Knight And Day\FLAC\05 Hostage.wav

     Peak level 94.4 %
     Track quality 100.0 %
     Test CRC 5BA56DDF
     Copy CRC 5BA56DDF
     Track not present in AccurateRip database
     Copy OK

Track  6

     Filename D:\Musiques\John Powell\Knight And Day\FLAC\06 Car Ferry.wav

     Peak level 84.1 %
     Track quality 100.0 %
     Test CRC EF2B5F97
     Copy CRC EF2B5F97
     Track not present in AccurateRip database
     Copy OK

Track  7

     Filename D:\Musiques\John Powell\Knight And Day\FLAC\07 To The Island Of Love.wav

     Peak level 94.4 %
     Track quality 99.9 %
     Test CRC 97977112
     Copy CRC 97977112
     Track not present in AccurateRip database
     Copy OK

Track  8

     Filename D:\Musiques\John Powell\Knight And Day\FLAC\08 In Austria.wav

     Peak level 95.0 %
     Track quality 100.0 %
     Test CRC 9091764B
     Copy CRC D7BD9B14
     Track not present in AccurateRip database
     Copy OK

Track  9

     Filename D:\Musiques\John Powell\Knight And Day\FLAC\09 Galley Fight.wav

     Peak level 94.4 %
     Track quality 100.0 %
     Test CRC 4D1755A4
     Copy CRC 4D1755A4
     Track not present in AccurateRip database
     Copy OK

Track 10

     Filename D:\Musiques\John Powell\Knight And Day\FLAC\10 Five Star.wav

     Peak level 94.4 %
     Track quality 99.9 %
     Test CRC FE086B0D
     Copy CRC FE086B0D
     Track not present in AccurateRip database
     Copy OK

Track 11

     Filename D:\Musiques\John Powell\Knight And Day\FLAC\11 June Spies.wav

     Peak level 94.4 %
     Track quality 100.0 %
     Test CRC FA695F27
     Copy CRC 76C2A711
     Track not present in AccurateRip database
     Copy OK

Track 12

     Filename D:\Musiques\John Powell\Knight And Day\FLAC\12 He's A Spy.wav

     Peak level 82.0 %
     Track quality 100.0 %
     Test CRC FE27622A
     Copy CRC FE27622A
     Track not present in AccurateRip database
     Copy OK

Track 13

     Filename D:\Musiques\John Powell\Knight And Day\FLAC\13 Rooftops.wav

     Peak level 94.4 %
     Track quality 100.0 %
     Test CRC 8153F4CC
     Copy CRC 8153F4CC
     Track not present in AccurateRip database
     Copy OK

Track 14

     Filename D:\Musiques\John Powell\Knight And Day\FLAC\14 The Villa.wav

     Peak level 94.4 %
     Track quality 100.0 %
     Test CRC F05D7CEF
     Copy CRC F05D7CEF
     Track not present in AccurateRip database
     Copy OK

Track 15

     Filename D:\Musiques\John Powell\Knight And Day\FLAC\15 Reunion.wav

     Peak level 94.4 %
     Track quality 100.0 %
     Test CRC 76D2D1CD
     Copy CRC 76D2D1CD
     Track not present in AccurateRip database
     Copy OK

Track 16

     Filename D:\Musiques\John Powell\Knight And Day\FLAC\16 Bull Run.wav

     Pre-gap length  0:00:01.24

     Peak level 94.4 %
     Track quality 100.0 %
     Test CRC 45075EC4
     Copy CRC 45075EC4
     Track not present in AccurateRip database
     Copy OK

Track 17

     Filename D:\Musiques\John Powell\Knight And Day\FLAC\17 Going To Cape Horn  Take A Jacket.wav

     Peak level 94.4 %
     Track quality 99.9 %
     Test CRC DFE35D12
     Copy CRC DFE35D12
     Track not present in AccurateRip database
     Copy OK

None of the tracks are present in the AccurateRip database

No errors occurred

End of status report

------------------------------------------------------------

Exact Audio Copy V0.99 prebeta 5 from 4. May 2009

EAC extraction logfile from 3. August 2010, 13:43

John Powell / Knight And Day

Used drive  : LITE-ON DVD SHD-16P1S   Adapter: 0  ID: 0

Read mode               : Secure
Utilize accurate stream : Yes
Defeat audio cache      : Yes
Make use of C2 pointers : No

Read offset correction                      : 6
Overread into Lead-In and Lead-Out          : No
Fill up missing offset samples with silence : Yes
Delete leading and trailing silent blocks   : No
Null samples used in CRC calculations       : Yes
Used interface                              : Installed external ASPI interface
Gap handling                                : Appended to previous track

Used output format              : User Defined Encoder
Selected bitrate                : 320 kBit/s
Quality                         : High
Add ID3 tag                     : No
Command line compressor         : C:\Program Files\FLAC\flac.exe
Additional command line options : -V -8 -T "artist=%a" -T "title=%t" -T "album=%g" -T "date=%y" -T "tracknumber=%n" -T "genre=%m" %s

TOC of the extracted CD

     Track |   Start  |  Length  | Start sector | End sector
    ---------------------------------------------------------
        1  |  0:00.07 |  4:42.20 |         7    |    21176
        2  |  4:42.27 |  3:45.10 |     21177    |    38061
        3  |  8:27.37 |  4:06.12 |     38062    |    56523
        4  | 12:33.49 |  2:21.03 |     56524    |    67101
        5  | 14:54.52 |  3:34.30 |     67102    |    83181
        6  | 18:29.07 |  1:34.67 |     83182    |    90298
        7  | 20:03.74 |  4:22.00 |     90299    |   109948
        8  | 24:25.74 |  1:31.51 |    109949    |   116824
        9  | 25:57.50 |  3:38.54 |    116825    |   133228
       10  | 29:36.29 |  2:16.10 |    133229    |   143438
       11  | 31:52.39 |  3:29.67 |    143439    |   159180
       12  | 35:22.31 |  1:13.73 |    159181    |   164728
       13  | 36:36.29 |  3:22.72 |    164729    |   179950
       14  | 39:59.26 |  2:29.50 |    179951    |   191175
       15  | 42:29.01 |  4:28.20 |    191176    |   211295
       16  | 46:57.21 |  4:51.58 |    211296    |   233178
       17  | 51:49.04 |  3:02.49 |    233179    |   246877

Track  2

     Filename D:\Musiques\John Powell\Knight And Day\FLAC\02 Rough Landing.wav

     Peak level 99.5 %
     Track quality 99.9 %
     Test CRC 14853E31
     Copy CRC 14853E31
     Track not present in AccurateRip database
     Copy OK

Track  3

     Filename D:\Musiques\John Powell\Knight And Day\FLAC\03 Trouble On I-93.wav

     Peak level 94.4 %
     Track quality 100.0 %
     Test CRC 785AD425
     Copy CRC 6F8645D7
     Track not present in AccurateRip database
     Copy OK

Track  8

     Filename D:\Musiques\John Powell\Knight And Day\FLAC\08 In Austria.wav

     Peak level 95.0 %
     Track quality 100.0 %
     Test CRC D7BD9B14
     Copy CRC D7BD9B14
     Track not present in AccurateRip database
     Copy OK

Track 11

     Filename D:\Musiques\John Powell\Knight And Day\FLAC\11 June Spies.wav

     Peak level 94.4 %
     Track quality 100.0 %
     Test CRC 76C2A711
     Copy CRC 76C2A711
     Track not present in AccurateRip database
     Copy OK

None of the tracks are present in the AccurateRip database

No errors occurred

End of status report

------------------------------------------------------------

Exact Audio Copy V0.99 prebeta 5 from 4. May 2009

EAC extraction logfile from 3. August 2010, 13:49

John Powell / Knight And Day

Used drive  : LITE-ON DVD SHD-16P1S   Adapter: 0  ID: 0

Read mode               : Secure
Utilize accurate stream : Yes
Defeat audio cache      : Yes
Make use of C2 pointers : No

Read offset correction                      : 6
Overread into Lead-In and Lead-Out          : No
Fill up missing offset samples with silence : Yes
Delete leading and trailing silent blocks   : No
Null samples used in CRC calculations       : Yes
Used interface                              : Installed external ASPI interface
Gap handling                                : Appended to previous track

Used output format              : User Defined Encoder
Selected bitrate                : 320 kBit/s
Quality                         : High
Add ID3 tag                     : No
Command line compressor         : C:\Program Files\FLAC\flac.exe
Additional command line options : -V -8 -T "artist=%a" -T "title=%t" -T "album=%g" -T "date=%y" -T "tracknumber=%n" -T "genre=%m" %s

TOC of the extracted CD

     Track |   Start  |  Length  | Start sector | End sector
    ---------------------------------------------------------
        1  |  0:00.07 |  4:42.20 |         7    |    21176
        2  |  4:42.27 |  3:45.10 |     21177    |    38061
        3  |  8:27.37 |  4:06.12 |     38062    |    56523
        4  | 12:33.49 |  2:21.03 |     56524    |    67101
        5  | 14:54.52 |  3:34.30 |     67102    |    83181
        6  | 18:29.07 |  1:34.67 |     83182    |    90298
        7  | 20:03.74 |  4:22.00 |     90299    |   109948
        8  | 24:25.74 |  1:31.51 |    109949    |   116824
        9  | 25:57.50 |  3:38.54 |    116825    |   133228
       10  | 29:36.29 |  2:16.10 |    133229    |   143438
       11  | 31:52.39 |  3:29.67 |    143439    |   159180
       12  | 35:22.31 |  1:13.73 |    159181    |   164728
       13  | 36:36.29 |  3:22.72 |    164729    |   179950
       14  | 39:59.26 |  2:29.50 |    179951    |   191175
       15  | 42:29.01 |  4:28.20 |    191176    |   211295
       16  | 46:57.21 |  4:51.58 |    211296    |   233178
       17  | 51:49.04 |  3:02.49 |    233179    |   246877

Track  3

     Filename D:\Musiques\John Powell\Knight And Day\FLAC\03 Trouble On I-93.wav

     Peak level 94.4 %
     Track quality 100.0 %
     Test CRC 6F8645D7
     Copy CRC 6F8645D7
     Track not present in AccurateRip database
     Copy OK

None of the tracks are present in the AccurateRip database

No errors occurred

End of status report

Код:

REM GENRE Soundtrack
REM DATE 2010
REM DISCID E90CDB11
REM COMMENT "ExactAudioCopy v0.99pb5"
PERFORMER "John Powell"
TITLE "Knight And Day"
FILE "01 At The Airport.wav" WAVE
  TRACK 01 AUDIO
    TITLE "At The Airport"
    PERFORMER "John Powell"
    PREGAP 00:00:07
    INDEX 01 00:00:00
FILE "02 Rough Landing.wav" WAVE
  TRACK 02 AUDIO
    TITLE "Rough Landing"
    PERFORMER "John Powell"
    INDEX 01 00:00:00
FILE "03 Trouble On I-93.wav" WAVE
  TRACK 03 AUDIO
    TITLE "Trouble On I-93"
    PERFORMER "John Powell"
    INDEX 01 00:00:00
FILE "04 Running From Roy.wav" WAVE
  TRACK 04 AUDIO
    TITLE "Running From Roy"
    PERFORMER "John Powell"
    INDEX 01 00:00:00
FILE "05 Hostage.wav" WAVE
  TRACK 05 AUDIO
    TITLE "Hostage"
    PERFORMER "John Powell"
    INDEX 01 00:00:00
FILE "06 Car Ferry.wav" WAVE
  TRACK 06 AUDIO
    TITLE "Car Ferry"
    PERFORMER "John Powell"
    INDEX 01 00:00:00
FILE "07 To The Island Of Love.wav" WAVE
  TRACK 07 AUDIO
    TITLE "To The Island Of Love"
    PERFORMER "John Powell"
    INDEX 01 00:00:00
FILE "08 In Austria.wav" WAVE
  TRACK 08 AUDIO
    TITLE "In Austria"
    PERFORMER "John Powell"
    INDEX 01 00:00:00
FILE "09 Galley Fight.wav" WAVE
  TRACK 09 AUDIO
    TITLE "Galley Fight"
    PERFORMER "John Powell"
    INDEX 01 00:00:00
FILE "10 Five Star.wav" WAVE
  TRACK 10 AUDIO
    TITLE "Five Star"
    PERFORMER "John Powell"
    INDEX 01 00:00:00
FILE "11 June Spies.wav" WAVE
  TRACK 11 AUDIO
    TITLE "June Spies"
    PERFORMER "John Powell"
    INDEX 01 00:00:00
FILE "12 He's A Spy.wav" WAVE
  TRACK 12 AUDIO
    TITLE "He's A Spy"
    PERFORMER "John Powell"
    INDEX 01 00:00:00
FILE "13 Rooftops.wav" WAVE
  TRACK 13 AUDIO
    TITLE "Rooftops"
    PERFORMER "John Powell"
    INDEX 01 00:00:00
FILE "14 The Villa.wav" WAVE
  TRACK 14 AUDIO
    TITLE "The Villa"
    PERFORMER "John Powell"
    INDEX 01 00:00:00
FILE "15 Reunion.wav" WAVE
  TRACK 15 AUDIO
    TITLE "Reunion"
    PERFORMER "John Powell"
    INDEX 01 00:00:00
  TRACK 16 AUDIO
    TITLE "Bull Run"
    PERFORMER "John Powell"
    INDEX 00 04:27:02
FILE "16 Bull Run.wav" WAVE
    INDEX 01 00:00:00
FILE "17 Going To Cape Horn  Take A Jacket.wav" WAVE
  TRACK 17 AUDIO
    TITLE "Going To Cape Horn? Take A Jacket"
    PERFORMER "John Powell"
    INDEX 01 00:00:00


Трекер:  [ 02-Дек-2010 17:41 ]

  

Скачать .torrent

Размер .torrent файла 14 KB


Размер: 325 MB
Хэш (hash) релиза: 703c2eccc34ba3ab917591639c27b8c6fa8b183c

Торренты, похожие на Рыцарь дня Knight And Day скачать торрент

Форум Название Автор Размер S L Добавлен
Саундтреки к фильмам и мультфильмам (mp3) ·· (Score) Рыцарь дня / Knight and Day (by John Powell) - 2010 [MP3 (tracks) 320 kbps] Phoenix 131921004126 MB 0 0 1292265025

21:30

13-Дек-10

Еще никто не оставлял запись к записи скачать торрент Рыцарь дня Knight And Day . Будь первым!

!Обратная связь