Скачать через торрент музыку Trans Am 1987-1990 бесплатно без регистрации torrent

Если у вас наблюдаются проблемы со скриншотами, переходом по ссылками, скачиванием торрентов - проблемы в блокировщике рекламы AdBlock. #хорошегоДня!


Статистика раздачи
Размер:  940 MB   |    Зарегистрирован:  5 лет   |    .torrent скачан:  15 раз   |   
Раздают:  1  
   
Загрузка...
 
Автор Сообщение

Galfimbul

avatar Galfimbul


Trans Am / 1987-1990 (3 Альбома)Жанр: Melodic Hard Rock
Год издания диска: 1987 - 1990
Страна: Germany (Bonn, North Rhine-Westphalia)
Аудиокодек: FLAC (*.flac)
Тип рипа: image+.cue
Битрейт аудио: lossless
Источник (релизер): slayer19
Наличие сканов в содержимом раздачи: да (All Scans)
Год издания диска: 1987
Издатель (лейбл): Bernie Productions
Номер по каталогу: B.P. 004
Аудио кодек: FLAC (*.flac)
Тип рипа: image+.cue
Битрейт аудио: lossless
Продолжительность: 38:57
Источник (релизер): slayer19
Наличие сканов в содержимом раздачи: да

Треклист:

01. Born to Boogie (03:48)
02. You Can Do (03:52)
03. Winternights (02:45)
04. 24th of June (05:47)
05. Rock the Nations (02:56)
06. Crazy Guy (04:14)
07. The Stuff (03:32)
08. Rock the Night (03:20)
09. Watch Out (03:35)
10. Cold Sweat (05:07)
Exact Audio Copy V1.0 beta 3 from 29. August 2011

Отчёт EAC об извлечении, выполненном 24. октября 2012, 13:00

Trans Am / Born to Boogie

Дисковод: Optiarc DVD RW AD-7200A Adapter: 0 ID: 0

Режим чтения : ДостоверностьИспользование точного потока : ДаОтключение кэша аудио : ДаИспользование указателей C2 : Нет

Коррекция смещения при чтении : 48Способность читать области Lead-in и Lead-out : НетЗаполнение пропущенных сэмплов тишиной : ДаУдаление блоков с тишиной в начале и конце : НетПри вычислениях CRC использовались нулевые сэмплы : ДаИнтерфейс : Встроенный Win32-интерфейс для Win NT/2000

Выходной формат : Пользовательский кодировщикВыбранный битрейт : 128 kBit/sКачество : ВысокийДобавление ID3-тега : НетУтилита сжатия : C:\Program Files\FLAC\FLAC frontend.exe

TOC извлечённого CD

Трек | Старт | Длительность | Начальный сектор | Конечный сектор --------------------------------------------------------------------- 1 | 0:00.00 | 3:48.25 | 0 | 17124 2 | 3:48.25 | 3:51.69 | 17125 | 34518 3 | 7:40.19 | 2:45.37 | 34519 | 46930 4 | 10:25.56 | 5:47.08 | 46931 | 72963 5 | 16:12.64 | 2:56.10 | 72964 | 86173 6 | 19:08.74 | 4:14.07 | 86174 | 105230 7 | 23:23.06 | 3:32.33 | 105231 | 121163 8 | 26:55.39 | 3:19.50 | 121164 | 136138 9 | 30:15.14 | 3:34.40 | 136139 | 152228 10 | 33:49.54 | 5:07.00 | 152229 | 175253

Характеристики диапазона извлечения и сообщения об ошибках

Выбранный диапазон

Имя файла D:\МОИ ФАЙЛЫ\LOSSLESS\slayer19\Trans Am - Born to Boogie.wav

Пиковый уровень 95.1 % Скорость извлечения 3.8 X Качество диапазона 100.0 % CRC теста D498D08A CRC копии D498D08A Копирование... OK

Ошибок не произошло

AccurateRip: сводка

Трек 1 отсутствует в базе данныхТрек 2 отсутствует в базе данныхТрек 3 отсутствует в базе данныхТрек 4 отсутствует в базе данныхТрек 5 отсутствует в базе данныхТрек 6 отсутствует в базе данныхТрек 7 отсутствует в базе данныхТрек 8 отсутствует в базе данныхТрек 9 отсутствует в базе данныхТрек 10 отсутствует в базе данных

Ни одного трека нет в базе AccurateRip

Конец отчёта

---- CUETools DB Plugin V2.1.3

[CTDB TOCID: pj.4qShHSyJFHoX_0ouN07ExqoM-] disk not present in database, Submit result: pj.4qShHSyJFHoX_0ouN07ExqoM- has been uploaded

==== Контрольная сумма отчёта 3F3172ECD29BCC68E6DD2F6FF2FE52BF05CF95A4F5409331CCD31B92BEE0A2DE ====
Год издания диска: 1989
Издатель (лейбл): Bernie Productions
Номер по каталогу: B.P. 006
Аудио кодек: FLAC (*.flac)
Тип рипа: image+.cue
Битрейт аудио: lossless
Продолжительность: 41:42
Источник (релизер): slayer19
Наличие сканов в содержимом раздачи: да

Треклист:

01. Around Midnight (04:14)
02. Go Down Shootin'' (03:39)
03. Just a Dream (05:41)
04. Hot for Love (03:08)
05. Thrills in the Night (03:22)
06. Miss Marple (04:05)
07. Fasten Seatbelts (03:47)
08. Hard Enough (04:20)
09. Now It''s your Turn (06:39)
10. Mother Earth (02:47)
Exact Audio Copy V1.0 beta 3 from 29. August 2011

Отчёт EAC об извлечении, выполненном 24. октября 2012, 13:54

Trans Am / Fasten Seatbelts

Дисковод: Optiarc DVD RW AD-7200A Adapter: 0 ID: 0

Режим чтения : ДостоверностьИспользование точного потока : ДаОтключение кэша аудио : ДаИспользование указателей C2 : Нет

Коррекция смещения при чтении : 48Способность читать области Lead-in и Lead-out : НетЗаполнение пропущенных сэмплов тишиной : ДаУдаление блоков с тишиной в начале и конце : НетПри вычислениях CRC использовались нулевые сэмплы : ДаИнтерфейс : Встроенный Win32-интерфейс для Win NT/2000

Выходной формат : Пользовательский кодировщикВыбранный битрейт : 128 kBit/sКачество : ВысокийДобавление ID3-тега : НетУтилита сжатия : C:\Program Files\FLAC\FLAC frontend.exe

TOC извлечённого CD

Трек | Старт | Длительность | Начальный сектор | Конечный сектор --------------------------------------------------------------------- 1 | 0:00.00 | 4:14.37 | 0 | 19086 2 | 4:14.37 | 3:39.35 | 19087 | 35546 3 | 7:53.72 | 5:40.55 | 35547 | 61101 4 | 13:34.52 | 3:07.70 | 61102 | 75196 5 | 16:42.47 | 3:21.48 | 75197 | 90319 6 | 20:04.20 | 4:04.60 | 90320 | 108679 7 | 24:09.05 | 3:46.62 | 108680 | 125691 8 | 27:55.67 | 4:20.15 | 125692 | 145206 9 | 32:16.07 | 6:38.45 | 145207 | 175101 10 | 38:54.52 | 2:47.03 | 175102 | 187629

Характеристики диапазона извлечения и сообщения об ошибках

Выбранный диапазон

Имя файла D:\МОИ ФАЙЛЫ\LOSSLESS\slayer19\Trans Am - Fasten Seatbelts.wav

Пиковый уровень 88.2 % Скорость извлечения 3.6 X Качество диапазона 100.0 % CRC теста B8FCA6D1 CRC копии B8FCA6D1 Копирование... OK

Ошибок не произошло

AccurateRip: сводка

Трек 1 : извлечено точно (доверие 1) [29881381] (AR v1)Трек 2 : извлечено точно (доверие 1) [50F27E61] (AR v1)Трек 3 : извлечено точно (доверие 1) [16E9F20E] (AR v1)Трек 4 : извлечено точно (доверие 1) [5B429B20] (AR v1)Трек 5 : извлечено точно (доверие 1) [CFE6C78F] (AR v1)Трек 6 : извлечено точно (доверие 1) [4C8F6115] (AR v1)Трек 7 : извлечено точно (доверие 1) [BABBD725] (AR v1)Трек 8 : извлечено точно (доверие 1) [2B733FA9] (AR v1)Трек 9 : извлечено точно (доверие 1) [6FF572D2] (AR v1)Трек 10 : извлечено точно (доверие 1) [50FFF06B] (AR v1)

Все треки извлечены точно

Конец отчёта

---- CUETools DB Plugin V2.1.3

[CTDB TOCID: .S8U0Gd3JHY3domogQrzNTLWSIw-] disk not present in database, Submit result: .S8U0Gd3JHY3domogQrzNTLWSIw- has been uploaded

==== Контрольная сумма отчёта 9D914EC53B8C268D309BAB833EF2A194FD38181CF24BF2A903C5BF53F6C92BE3 ====
Год издания диска: 1990
Издатель (лейбл): Bernie Productions
Номер по каталогу: B.P. 008
Аудио кодек: FLAC (*.flac)
Тип рипа: image+.cue
Битрейт аудио: lossless
Продолжительность: 50:22
Источник (релизер): slayer19
Наличие сканов в содержимом раздачи: да

Треклист:

01. Fire in Me (04:06)
02. Leavin'' You (03:59)
03. I Want You (04:40)
04. Close My Eyes (04:58)
05. Everybody (04:05)
06. Rockin'' Rocket (03:19)
07. The Gallery (04:53)
08. Nobody (03:35)
09. Rage Heart (03:23)
10. Give a Little (04:07)
11. Mark the Scotsman (04:16)
12. Woody''s Blues (5:01)
Exact Audio Copy V1.0 beta 3 from 29. August 2011

Отчёт EAC об извлечении, выполненном 24. октября 2012, 14:31

Trans Am / Unlimited

Дисковод: Optiarc DVD RW AD-7200A Adapter: 0 ID: 0

Режим чтения : ДостоверностьИспользование точного потока : ДаОтключение кэша аудио : ДаИспользование указателей C2 : Нет

Коррекция смещения при чтении : 48Способность читать области Lead-in и Lead-out : НетЗаполнение пропущенных сэмплов тишиной : ДаУдаление блоков с тишиной в начале и конце : НетПри вычислениях CRC использовались нулевые сэмплы : ДаИнтерфейс : Встроенный Win32-интерфейс для Win NT/2000

Выходной формат : Пользовательский кодировщикВыбранный битрейт : 128 kBit/sКачество : ВысокийДобавление ID3-тега : НетУтилита сжатия : C:\Program Files\FLAC\FLAC frontend.exe

TOC извлечённого CD

Трек | Старт | Длительность | Начальный сектор | Конечный сектор --------------------------------------------------------------------- 1 | 0:00.00 | 4:06.30 | 0 | 18479 2 | 4:06.30 | 3:59.22 | 18480 | 36426 3 | 8:05.52 | 4:40.03 | 36427 | 57429 4 | 12:45.55 | 4:57.65 | 57430 | 79769 5 | 17:43.45 | 4:05.20 | 79770 | 98164 6 | 21:48.65 | 3:18.47 | 98165 | 113061 7 | 25:07.37 | 4:52.53 | 113062 | 135014 8 | 30:00.15 | 3:34.55 | 135015 | 151119 9 | 33:34.70 | 3:23.12 | 151120 | 166356 10 | 36:58.07 | 4:07.33 | 166357 | 184914 11 | 41:05.40 | 4:16.02 | 184915 | 204116 12 | 45:21.42 | 5:00.60 | 204117 | 226676

Характеристики диапазона извлечения и сообщения об ошибках

Выбранный диапазон

Имя файла D:\МОИ ФАЙЛЫ\LOSSLESS\slayer19\Trans Am - Unlimited.wav

Пиковый уровень 97.7 % Скорость извлечения 3.8 X Качество диапазона 100.0 % CRC теста 1EB599CD CRC копии 1EB599CD Копирование... OK

Ошибок не произошло

AccurateRip: сводка

Трек 1 : извлечено точно (доверие 1) [BC93D5CF] (AR v1)Трек 2 : извлечено точно (доверие 1) [BB622222] (AR v1)Трек 3 : извлечено точно (доверие 1) [84246C2F] (AR v1)Трек 4 : извлечено точно (доверие 1) [C152D1A7] (AR v1)Трек 5 : извлечено точно (доверие 1) [E405C3C5] (AR v1)Трек 6 : извлечено точно (доверие 1) [C8168CE6] (AR v1)Трек 7 : извлечено точно (доверие 1) [4329B893] (AR v1)Трек 8 : извлечено точно (доверие 1) [F7695685] (AR v1)Трек 9 : извлечено точно (доверие 1) [F418ABDC] (AR v1)Трек 10 : извлечено точно (доверие 1) [B4D99D6A] (AR v1)Трек 11 : извлечено точно (доверие 1) [D889CA4B] (AR v1)Трек 12 : извлечено точно (доверие 1) [42344B4B] (AR v1)

Все треки извлечены точно

Конец отчёта

---- CUETools DB Plugin V2.1.3

[CTDB TOCID: h9xNJ8h8jN58ODOD5SrxkMXkvdo-] found, Submit result: h9xNJ8h8jN58ODOD5SrxkMXkvdo- has been confirmed[5244c9fd] (1/1) Accurately ripped

==== Контрольная сумма отчёта DA6AEB0FA47848DBDD4CC6DAC91C907DA03069351A7BF734F879B5BD698B0E53 ====


Трекер:  [ 27-Окт-2012 13:54 ]

  

Скачать .torrent

Размер .torrent файла 21 KB


Размер: 940 MB
Хэш (hash) релиза: 7c3e23edf4ad0e5926c672d3f06f71f0b851094f

Еще никто не оставлял запись к записи скачать торрент Trans Am 1987-1990 . Будь первым!

!Обратная связь