Скачать через торрент музыку LCD Soundsystem: Shut Up and Play the Hits бесплатно без регистрации torrent

Если у вас наблюдаются проблемы со скриншотами, переходом по ссылками, скачиванием торрентов - проблемы в блокировщике рекламы AdBlock. #хорошегоДня!


Статистика раздачи
Размер:  106.77 GB   |    Зарегистрирован:  5 лет   |    .torrent скачан:  20 раз   |   
Раздают:  1  
   
Загрузка...
 
Автор Сообщение

Galfimbul

avatar Galfimbul


LCD Soundsystem: Shut Up and Play the Hits
Год выпуска: 2012
Жанр: Indie Rock
Продолжительность: 01:48:45 (BD №1) + 01:46:33 (BD №2) + 01:48:15 (BD №3)
Описание: On April 2nd 2011, LCD Soundsystem played its final show at Madison Square Garden in New York City. LCD frontman James Murphy, disbanding one of the most celebrated and influential groups of its generation at the peak of its popularity, ensured that the band would go out on top with the biggest concert of its career. The instantly sold out, near four-hour extravaganza featured special appearances by Arcade Fire and Reggie Watts and moved the crowd of thousands to tears of joy and grief.

Shut Up and Play the Hits both captures this once-in-a-lifetime event with stunning visuals and serves as an intimate portrait of Murphy as he navigates the 48 hours surrounding the show. Woven throughout is an honest and unflinching conversation between Murphy and author Chuck Klosterman as they discuss music, art, aging, and the decision to call it quits while at the top of your game.

This special edition Blu-ray set also includes the three-and-a-half-hour concert in its entirety.
Blu-ray Disc №1: Extended Interview with Chuck Klosterman and James Murphy
Outtakes featuring LCD''s manager Keith Wood and their concert
Catching Up With Keith - Keith Wood in retirement
Original theatrical trailer
Качество: Blu-ray
Формат: BDMV
Видео кодек: MPEG-4 AVC
Аудио кодек: DTS, PCM
Видео: 1920x1080p, MPEG-4 AVC, 23.976 fps, ~35124 Kbps
Аудио №1: DTS-HD MA 5.1 (48 kHz / 3856 kbps / 24-bit)
Аудио №2: LPCM 2.0 (48 kHz / 2304 kbps / 24-bit)
DISC INFO:

Disc Title: SHUT_UP_AND_PLAY_THE_HITS_D1Disc Size: 43,317,547,221 bytesProtection: AACSBD-Java: NoBDInfo: 0.5.8

PLAYLIST REPORT:

Name: 00020.MPLSLength: 1:48:45.518 (h:m:s.ms)Size: 35,517,732,864 bytesTotal Bitrate: 43.54 Mbps

VIDEO:

Codec Bitrate Description----- ------- -----------MPEG-4 AVC Video 35124 kbps 1080p / 23.976 fps / 16:9 / High Profile 4.1

AUDIO:

Codec Language Bitrate Description----- -------- ------- -----------DTS-HD Master Audio English 3856 kbps 5.1 / 48 kHz / 3856 kbps / 24-bit (DTS Core: 5.1 / 48 kHz / 1509 kbps / 24-bit)LPCM Audio English 2304 kbps 2.0 / 48 kHz / 2304 kbps / 24-bit

SUBTITLES:

Codec Language Bitrate Description----- -------- ------- -----------Presentation Graphics English 60.385 kbpsPresentation Graphics French 30.662 kbps

FILES:

Name Time In Length Size Total Bitrate---- ------- ------ ---- -------------00000.M2TS 0:00:00.000 1:48:44.517 35,517,462,528 43,55000005.M2TS 1:48:44.517 0:00:01.000 270,336 2,161



Blu-ray Disc №2 LCD Soundsystem Farewell Concert at Madison Square Garden on April 2, 2011 (Part 1).

Треклист:
Set 1
01. Dance Yrself Clean
02. Drunk Girls
03. I Can Change
04. Time To Get Away
05. Get Innocuous!
06. Daft Punk Is Playing At My House
07. Too Much Love (with Phil Mossman)
08. All My Friends
09. Tired (with "Heart of the Sunrise" by Yes snippet)

Set 2
10. 45:33 Part One
11. 45:33 Part Two (with Reggie Watts)
12. Sound of Silver
13. 45:33 Part Four
14. 45:33 Part Five
15. 45:33 Part Six
16. Freak Out/Starry Eyes
Качество: Blu-ray
Формат: BDMV
Видео кодек: MPEG-4 AVC
Аудио кодек: DTS, PCM
Видео: 1920x1080p, MPEG-4 AVC, 23.976 fps, ~34969 Kbps
Аудио №1: DTS-HD MA 5.1 (48 kHz / 4303 kbps / 24-bit)
Аудио №2: LPCM 2.0 (48 kHz / 2304 kbps / 24-bit)
DISC INFO:

Disc Title: SHUT_UP_AND_PLAY_THE_HITS_D2Disc Size: 35,379,555,386 bytesProtection: AACSBD-Java: NoBDInfo: 0.5.8

PLAYLIST REPORT:

Name: 00020.MPLSLength: 1:46:33.678 (h:m:s.ms)Size: 34,964,852,736 bytesTotal Bitrate: 43.75 Mbps

VIDEO:

Codec Bitrate Description----- ------- -----------MPEG-4 AVC Video 34969 kbps 1080p / 23.976 fps / 16:9 / High Profile 4.1

AUDIO:

Codec Language Bitrate Description----- -------- ------- -----------DTS-HD Master Audio English 4303 kbps 5.1 / 48 kHz / 4303 kbps / 24-bit (DTS Core: 5.1 / 48 kHz / 1509 kbps / 24-bit)LPCM Audio English 2304 kbps 2.0 / 48 kHz / 2304 kbps / 24-bit

FILES:

Name Time In Length Size Total Bitrate---- ------- ------ ---- -------------00003.M2TS 0:00:00.000 1:46:32.677 34,964,582,400 43,75600004.M2TS 1:46:32.677 0:00:01.000 270,336 2,161



Blu-ray Disc №3 LCD Soundsystem Farewell Concert at Madison Square Garden on April 2, 2011 (Part 2).

Треклист:
Set 3
17. Us v Them
18. North American Scum (with Arcade Fire)
19. Bye Bye Bayou (Alan Vega cover)
20. You Wanted A Hit
21. Tribulations
22. Movement
23. Yeah (Crass Version)

Encore 1:
24. Someone Great
25. Losing My Edge(With "Ghost Rider" by Suicide,… more)
26. Home

Encore 2:
27. All I Want
28. Jump Into the Fire (Harry Nilsson cover)
29. New York, I Love You But You''re Bringing Me Down (with "Twin Peaks Theme" by Angelo Badalamenti snippet)
Качество: Blu-ray
Формат: BDMV
Видео кодек: MPEG-4 AVC
Аудио кодек: DTS, PCM
Видео: 1920x1080p, MPEG-4 AVC, 23.976 fps, ~34971 Kbps
Аудио №1: DTS-HD MA 5.1 (48 kHz / 4307 kbps / 24-bit)
Аудио №2: LPCM 2.0 (48 kHz / 2304 kbps / 24-bit)
DISC INFO:

Disc Title: SHUT_UP_AND_PLAY_THE_HITS_D3Disc Size: 35,941,070,110 bytesProtection: AACSBD-Java: NoBDInfo: 0.5.8

PLAYLIST REPORT:

Name: 00020.MPLSLength: 1:48:15.488 (h:m:s.ms)Size: 35,526,758,400 bytesTotal Bitrate: 43.76 Mbps

VIDEO:

Codec Bitrate Description----- ------- -----------MPEG-4 AVC Video 34971 kbps 1080p / 23.976 fps / 16:9 / High Profile 4.1

AUDIO:

Codec Language Bitrate Description----- -------- ------- -----------DTS-HD Master Audio English 4307 kbps 5.1 / 48 kHz / 4307 kbps / 24-bit (DTS Core: 5.1 / 48 kHz / 1509 kbps / 24-bit)LPCM Audio English 2304 kbps 2.0 / 48 kHz / 2304 kbps / 24-bit

FILES:

Name Time In Length Size Total Bitrate---- ------- ------ ---- -------------00000.M2TS 0:00:00.000 1:48:14.487 35,526,488,064 43,76200001.M2TS 1:48:14.487 0:00:01.000 270,336 2,161


Трекер:  [ 26-Окт-2012 11:02 ]

  

Скачать .torrent

Размер .torrent файла 551 KB


Размер: 106.77 GB
Хэш (hash) релиза: 35975152a764d9e004c23a4ca187d08ad6eb41c7

Еще никто не оставлял запись к записи скачать торрент LCD Soundsystem: Shut Up and Play the Hits . Будь первым!

!Обратная связь