Скачать через торрент музыку Jake Bugg - Jake Bugg - 2012, FLAC бесплатно без регистрации torrent

Если у вас наблюдаются проблемы со скриншотами, переходом по ссылками, скачиванием торрентов - проблемы в блокировщике рекламы AdBlock. #хорошегоДня!


Статистика раздачи
Размер:  231 MB   |    Зарегистрирован:  5 лет   |    .torrent скачан:  7 раз   |   
Раздают:  1  
   
Загрузка...
 
Автор Сообщение

Galfimbul

avatar Galfimbul


Jake Bugg / Jake Bugg

Жанр: Indie Folk
Год издания: 2012
Издатель (лейбл): Mercury Records
Страна: UK
Аудиокодек: FLAC (*.flac)
Тип рипа: tracks+.cue
Битрейт аудио: lossless
Продолжительность: 39:20
Источник (релизер): What.cd
Наличие сканов в содержимом раздачи: нет
Треклист:
01. Lighting Bolt [02:24]
02. Two Fingers [03:16]
03. Taste It [02:24]
04. Seen It All [02:51]
05. Simple As This [03:19]
06. Country Song [01:49]
07. Broken [04:07]
08. Trouble Town [02:50]
09. Ballad Of Mr Jones [02:39]
10. Slide [03:08]
11. Someone Told Me [02:36]
12. Note To Self [02:40]
13. Someplace [03:32]
14. Fire [01:43]

http://jakebugg.com/
http://www.myspace.com/jakebugguk
http://www.facebook.com/jakebugguk
http://en.wikipedia.org/wiki/Jake_Bugg
X Lossless Decoder version 20121013 (142.0)

XLD extraction logfile from 2012-10-25 18:07:23 +0100

Jake Bugg / Jake Bugg

Used drive : MATSHITA BD-RE UJ-225S (revision Q310)

Ripper mode : XLD Secure RipperDisable audio cache : OK for the drive with a cache less than 1375KiBMake use of C2 pointers : NORead offset correction : 102Max retry count : 100Gap status : Analyzed, Appended (except HTOA)

TOC of the extracted CD Track | Start | Length | Start sector | End sector --------------------------------------------------------- 1 | 00:00:00 | 02:24:01 | 0 | 10800 2 | 02:24:01 | 03:15:74 | 10801 | 25499 3 | 05:40:00 | 02:24:40 | 25500 | 36339 4 | 08:04:40 | 02:51:16 | 36340 | 49180 5 | 10:55:56 | 03:19:34 | 49181 | 64139 6 | 14:15:15 | 01:49:60 | 64140 | 72374 7 | 16:05:00 | 04:07:01 | 72375 | 90900 8 | 20:12:01 | 02:50:07 | 90901 | 103657 9 | 23:02:08 | 02:39:20 | 103658 | 115602 10 | 25:41:28 | 03:08:71 | 115603 | 129773 11 | 28:50:24 | 02:36:58 | 129774 | 141531 12 | 31:27:07 | 02:40:70 | 141532 | 153601 13 | 34:08:02 | 03:32:00 | 153602 | 169501 14 | 37:40:02 | 01:46:73 | 169502 | 177524

AccurateRip Summary Disc not found in AccurateRip DB.

All Tracks Album gain : -9.32 dB Peak : 0.999084 Statistics Read error : 0 Jitter error (maybe fixed) : 0 Retry sector count : 0 Damaged sector count : 0

Track 01 Filename : /Users/seanbyford/Desktop/Jake Bugg - Jake Bugg (2012) [FLAC]/01 Lightning Bolt.flac Pre-gap length : 00:02:00

Track gain : -9.42 dB Peak : 0.989746 CRC32 hash (test run) : F4055602 CRC32 hash : F4055602 CRC32 hash (skip zero) : B9C2ED03 AccurateRip v1 signature : 9FEC22BC AccurateRip v2 signature : 35A89958 ->Track not present in AccurateRip database. Statistics Read error : 0 Jitter error (maybe fixed) : 0 Retry sector count : 0 Damaged sector count : 0

Track 02 Filename : /Users/seanbyford/Desktop/Jake Bugg - Jake Bugg (2012) [FLAC]/02 Two Fingers.flac

Track gain : -9.49 dB Peak : 0.999084 CRC32 hash (test run) : 6E3C2B4C CRC32 hash : 6E3C2B4C CRC32 hash (skip zero) : E7B20FFC AccurateRip v1 signature : 3FE6A945 AccurateRip v2 signature : 602DE309 ->Track not present in AccurateRip database. Statistics Read error : 0 Jitter error (maybe fixed) : 0 Retry sector count : 0 Damaged sector count : 0

Track 03 Filename : /Users/seanbyford/Desktop/Jake Bugg - Jake Bugg (2012) [FLAC]/03 Taste It.flac

Track gain : -10.74 dB Peak : 0.999084 CRC32 hash (test run) : 76DDF6AA CRC32 hash : 76DDF6AA CRC32 hash (skip zero) : 4E3F36F7 AccurateRip v1 signature : 49AFD6BF AccurateRip v2 signature : 1F04660B ->Track not present in AccurateRip database. Statistics Read error : 0 Jitter error (maybe fixed) : 0 Retry sector count : 0 Damaged sector count : 0

Track 04 Filename : /Users/seanbyford/Desktop/Jake Bugg - Jake Bugg (2012) [FLAC]/04 Seen It All.flac

Track gain : -9.97 dB Peak : 0.999084 CRC32 hash (test run) : C1F9177A CRC32 hash : C1F9177A CRC32 hash (skip zero) : 662B795D AccurateRip v1 signature : AEC499B1 AccurateRip v2 signature : 5986F702 ->Track not present in AccurateRip database. Statistics Read error : 0 Jitter error (maybe fixed) : 0 Retry sector count : 0 Damaged sector count : 0

Track 05 Filename : /Users/seanbyford/Desktop/Jake Bugg - Jake Bugg (2012) [FLAC]/05 Simple as This.flac

Track gain : -7.51 dB Peak : 0.999023 CRC32 hash (test run) : EB3F0B5B CRC32 hash : EB3F0B5B CRC32 hash (skip zero) : A598030C AccurateRip v1 signature : F318C2B5 AccurateRip v2 signature : 2AECCF65 ->Track not present in AccurateRip database. Statistics Read error : 0 Jitter error (maybe fixed) : 0 Retry sector count : 0 Damaged sector count : 0

Track 06 Filename : /Users/seanbyford/Desktop/Jake Bugg - Jake Bugg (2012) [FLAC]/06 Country Song.flac

Track gain : -6.46 dB Peak : 0.954285 CRC32 hash (test run) : DD3A9D90 CRC32 hash : DD3A9D90 CRC32 hash (skip zero) : 74F33210 AccurateRip v1 signature : 570A9E98 AccurateRip v2 signature : 7F3485D8 ->Track not present in AccurateRip database. Statistics Read error : 0 Jitter error (maybe fixed) : 0 Retry sector count : 0 Damaged sector count : 0

Track 07 Filename : /Users/seanbyford/Desktop/Jake Bugg - Jake Bugg (2012) [FLAC]/07 Broken.flac

Track gain : -7.83 dB Peak : 0.999084 CRC32 hash (test run) : 7DB1B81C CRC32 hash : 7DB1B81C CRC32 hash (skip zero) : 1C3035AF AccurateRip v1 signature : 54F7B47D AccurateRip v2 signature : B860062F ->Track not present in AccurateRip database. Statistics Read error : 0 Jitter error (maybe fixed) : 0 Retry sector count : 0 Damaged sector count : 0

Track 08 Filename : /Users/seanbyford/Desktop/Jake Bugg - Jake Bugg (2012) [FLAC]/08 Trouble Town.flac

Track gain : -9.59 dB Peak : 0.999054 CRC32 hash (test run) : 031147E2 CRC32 hash : 031147E2 CRC32 hash (skip zero) : 649212B3 AccurateRip v1 signature : C379A14A AccurateRip v2 signature : 581762ED ->Track not present in AccurateRip database. Statistics Read error : 0 Jitter error (maybe fixed) : 0 Retry sector count : 0 Damaged sector count : 0

Track 09 Filename : /Users/seanbyford/Desktop/Jake Bugg - Jake Bugg (2012) [FLAC]/09 Ballad of Mr Jones.flac

Track gain : -9.59 dB Peak : 0.999084 CRC32 hash (test run) : 1C210D08 CRC32 hash : 1C210D08 CRC32 hash (skip zero) : CB36A1A6 AccurateRip v1 signature : 61689CA5 AccurateRip v2 signature : 570FE5FC ->Track not present in AccurateRip database. Statistics Read error : 0 Jitter error (maybe fixed) : 0 Retry sector count : 0 Damaged sector count : 0

Track 10 Filename : /Users/seanbyford/Desktop/Jake Bugg - Jake Bugg (2012) [FLAC]/10 Slide.flac

Track gain : -9.74 dB Peak : 0.999054 CRC32 hash (test run) : B10AAF32 CRC32 hash : B10AAF32 CRC32 hash (skip zero) : 7D5C36DE AccurateRip v1 signature : 4A6D0B1F AccurateRip v2 signature : 44F7116B ->Track not present in AccurateRip database. Statistics Read error : 0 Jitter error (maybe fixed) : 0 Retry sector count : 0 Damaged sector count : 0

Track 11 Filename : /Users/seanbyford/Desktop/Jake Bugg - Jake Bugg (2012) [FLAC]/11 Someone Told Me.flac

Track gain : -6.73 dB Peak : 0.977112 CRC32 hash (test run) : 69B9BE9F CRC32 hash : 69B9BE9F CRC32 hash (skip zero) : 9A9DE28E AccurateRip v1 signature : 6ECB70A2 AccurateRip v2 signature : B299F84E ->Track not present in AccurateRip database. Statistics Read error : 0 Jitter error (maybe fixed) : 0 Retry sector count : 0 Damaged sector count : 0

Track 12 Filename : /Users/seanbyford/Desktop/Jake Bugg - Jake Bugg (2012) [FLAC]/12 Note to Self.flac

Track gain : -7.40 dB Peak : 0.999023 CRC32 hash (test run) : 3DE41381 CRC32 hash : 3DE41381 CRC32 hash (skip zero) : BDB9BDAD AccurateRip v1 signature : 4A3B3129 AccurateRip v2 signature : 41F08DE6 ->Track not present in AccurateRip database. Statistics Read error : 0 Jitter error (maybe fixed) : 0 Retry sector count : 0 Damaged sector count : 0

Track 13 Filename : /Users/seanbyford/Desktop/Jake Bugg - Jake Bugg (2012) [FLAC]/13 Someplace.flac

Track gain : -8.56 dB Peak : 0.999054 CRC32 hash (test run) : 2412FB3E CRC32 hash : 2412FB3E CRC32 hash (skip zero) : 6E0E40F6 AccurateRip v1 signature : 4947B717 AccurateRip v2 signature : A7493A3D ->Track not present in AccurateRip database. Statistics Read error : 0 Jitter error (maybe fixed) : 0 Retry sector count : 0 Damaged sector count : 0

Track 14 Filename : /Users/seanbyford/Desktop/Jake Bugg - Jake Bugg (2012) [FLAC]/14 Fire.flac

Track gain : -7.80 dB Peak : 0.961121 CRC32 hash (test run) : 27A38AB4 CRC32 hash : 27A38AB4 CRC32 hash (skip zero) : 47177735 AccurateRip v1 signature : EE5BB0E8 AccurateRip v2 signature : DEB649D3 ->Track not present in AccurateRip database. Statistics Read error : 0 Jitter error (maybe fixed) : 0 Retry sector count : 0 Damaged sector count : 0

No errors occurred

End of status report
7777777777777
Aged just 18, Nottingham lad Jake Bugg has supported Noel Gallagher and The Stone Roses, soundtracked a beer advert and appeared on Later… with Jools Holland. Nothing seems to unnerve him, and while it’s a while since a singer-songwriter’s debut was so feverishly anticipated, he has such momentum that there seems little chance of anybody daring to initiate a backlash yet.
Bugg’s trick is to keep things simple. His influences – Dylan, Donovan – are blindingly obvious, but he brings a modern, metropolitan, post-Alex Turner consciousness to the strumming and couplets.
He comes in atypically fast and furious for opener Lightning Bolt, a blast of Blonde on Blonde refracted through the venerable Bad Moon Rising riff, the band offering a slice of punk-skiffle. — BBC
Two Fingers is all echo and snare drum as Bugg sings, “I drink to remember / I smoke to forget” with a relish suggesting he’s moved on from behind the school bike-sheds to Clifton’s meaner streets. He at least has the guile to follow “been down some dark alleys…” with “…in my own head”.

He refers to the police, from whom he hides while “skinning up a fat one”, as “the feds”, which tells you something about the need for Midlands teens to self-glamorise. “A pill or maybe two” is taken in the car park as Seen It All begins: another indication that his virtues lie in his frankness and naivety, even if the recurring drug references get a bit student-bore.

There’s an odd anachronistic tendency towards rockabilly, though. So much so that at times you might believe Bugg was raised on the Sun Records catalogue by a well-meaning Richard Hawley-like figure, were it not for the pristine production values.

Things feel less derivative when he softens and just lets his voice and acoustic guitar nakedly affect. On the likes of Country Song and Someone Told Me, scepticism is tamed by the purity of the attempt. Fire is unabashedly romantic. That voice, with its hint of Gene Pitney, is a piercing, precise tool which lifts him above the laddish milieu. Ubiquity may beckon.
http://www.youtube.com/watch?v=J9XwFecNXyU
http://www.youtube.com/watch?v=fY0oPg1h8fQ
http://www.youtube.com/watch?v=VHLN6K640gQ
<a href="https://www.youtube.com/watch?v=WTM9rV8uKpI" class="postLink">https://www.youtube.com/watch?v=WTM9rV8uKpI</a>

Трекер:  [ 27-Окт-2012 13:53 ]

  

Скачать .torrent

Размер .torrent файла 19 KB


Размер: 231 MB
Хэш (hash) релиза: 3c3f072d655619ddb7c18791121930c398578eb6

Еще никто не оставлял запись к записи скачать торрент Jake Bugg - Jake Bugg - 2012, FLAC . Будь первым!

!Обратная связь