Скачать через торрент музыку Black Country Communion - Дискография бесплатно без регистрации torrent

Если у вас наблюдаются проблемы со скриншотами, переходом по ссылками, скачиванием торрентов - проблемы в блокировщике рекламы AdBlock. #хорошегоДня!


Статистика раздачи
Размер:  2.19 GB   |    Зарегистрирован:  5 лет   |    .torrent скачан:  80 раз   |   
Раздают:  1  
   
Загрузка...
 
Автор Сообщение

Galfimbul

avatar Galfimbul


Black Country Communion



[b]Жанр
: Hard Rock
Страна-производитель диска: USA
Год издания диска: 2010-2012
Аудиокодек: FLAC (*.flac)
Тип рипа: image+.cue
Битрейт аудио: lossless
Источник (релизер): ©СЁРФ-Маrаtones aka izia1956
Наличие сканов в содержимом раздачи: да
Треклист:
25 Октября 2012 года добавлен альбом:
2012 - Afterglow
Желающие могут ознакомиться!!!
01. Black Country (3:15)
02. One Last Soul (3:52)
03. The Great Divide (4:45)
04. Down Again (5:45)
05. Beggarman (4:51)
06. Song Of Yesterday (8:32)
07. No Time (4:18)
08. Medusa (6:56)
09. The Revolution In Me (4:59)
10. Stand (At The Burning Tree) (7:02)
11. Sista Jane (6:54)
12. Too Late For The Sun (11:21)
Exact Audio Copy V0.99 prebeta 4 from 23. January 2008

Отчёт EAC об извлечении, выполненном 3. июня 2011, 22:27

Black Country Communion / Black Country Communion

Дисковод: PLEXTOR DVDR PX-880SA Adapter: 1 ID: 1

Режим чтения : ДостоверностьИспользование точного потока : ДаОтключение кэша аудио : ДаИспользование указателей C2 : Нет

Коррекция смещения при чтении : 6Способность читать области Lead-in и Lead-out : НетЗаполнение пропущенных сэмплов тишиной : ДаУдаление блоков с тишиной в начале и конце : НетПри вычислениях CRC использовались нулевые сэмплы : ДаИнтерфейс : Встроенный Win32-интерфейс для Win NT/2000

Выходной формат : Пользовательский кодировщикВыбранный битрейт : 1024 kBit/sКачество : ВысокийДобавление ID3-тэга : НетУтилита сжатия : C:\Program Files\Exact Audio Copy\FLAC\FLAC.EXEДополнительные параметры : -6 -V -T "ARTIST=%a" -T "TITLE=%t" -T "ALBUM=%g" -T "DATE=%y" -T "TRACKNUMBER=%n" -T "GENRE=%m" -T "COMMENT=%e" %s -o %d

TOC извлечённого CD

Трек | Старт | Длительность | Начальный сектор | Конечный сектор --------------------------------------------------------------------- 1 | 0:00.00 | 3:15.01 | 0 | 14625 2 | 3:15.01 | 3:52.36 | 14626 | 32061 3 | 7:07.37 | 4:45.06 | 32062 | 53442 4 | 11:52.43 | 5:45.38 | 53443 | 79355 5 | 17:38.06 | 4:51.65 | 79356 | 101245 6 | 22:29.71 | 8:33.30 | 101246 | 139750 7 | 31:03.26 | 4:18.48 | 139751 | 159148 8 | 35:21.74 | 6:56.49 | 159149 | 190397 9 | 42:18.48 | 4:59.22 | 190398 | 212844 10 | 47:17.70 | 7:01.72 | 212845 | 244491 11 | 54:19.67 | 6:54.49 | 244492 | 275590 12 | 61:14.41 | 11:21.12 | 275591 | 326677

Характеристики диапазона извлечения и сообщения об ошибках

Выбранный диапазон

Имя файла J:\BitComet\Black Country Communion\2010 - Black Country Communion\Black Country Communion - Black Country Communion.wav

Пиковый уровень 100.0 % Качество диапазона 99.9 % CRC теста D3E774CA CRC копии D3E774CA Копирование... OK

Ошибок не произошло

AccurateRip: сводка

Трек 1 точное извлечение (доверие 38) [13CD708B]Трек 2 точное извлечение (доверие 39) [F95BCA0F]Трек 3 точное извлечение (доверие 39) [648B57FA]Трек 4 точное извлечение (доверие 39) [4DE6114C]Трек 5 точное извлечение (доверие 38) [B6A7EB7C]Трек 6 точное извлечение (доверие 39) [D2A76CC0]Трек 7 точное извлечение (доверие 39) [3110779C]Трек 8 точное извлечение (доверие 39) [05590EE6]Трек 9 точное извлечение (доверие 39) [884CE540]Трек 10 точное извлечение (доверие 38) [67BC3E5D]Трек 11 точное извлечение (доверие 38) [E8649ED5]Трек 12 точное извлечение (доверие 30) [0A2456F5]

Все треки извлечены точно

Конец отчёта
01. The Outsider (04:23)
02. Man In The Middle (04:35)
03. The Battle For Hadrian''s Wall (05:10)
04. Save Me (07:42)
05. Smokestack Woman (05:10)
06. Faithless (05:10)
07. An Ordinary Son (07:59)
08. I Can See Your Spirit (04:11)
09. Little Secret (06:59)
10. Crossfire (06:03)
11. Cold (06:55)
Exact Audio Copy V0.99 prebeta 4 from 23. January 2008

Отчёт EAC об извлечении, выполненном 3. июня 2011, 18:33

Black Country Communion / 2

Дисковод: PLEXTOR DVDR PX-880SA Adapter: 1 ID: 1

Режим чтения : ДостоверностьИспользование точного потока : ДаОтключение кэша аудио : ДаИспользование указателей C2 : Нет

Коррекция смещения при чтении : 6Способность читать области Lead-in и Lead-out : НетЗаполнение пропущенных сэмплов тишиной : ДаУдаление блоков с тишиной в начале и конце : НетПри вычислениях CRC использовались нулевые сэмплы : ДаИнтерфейс : Встроенный Win32-интерфейс для Win NT/2000

Выходной формат : Пользовательский кодировщикВыбранный битрейт : 1024 kBit/sКачество : ВысокийДобавление ID3-тэга : НетУтилита сжатия : C:\Program Files\Exact Audio Copy\FLAC\FLAC.EXEДополнительные параметры : -6 -V -T "ARTIST=%a" -T "TITLE=%t" -T "ALBUM=%g" -T "DATE=%y" -T "TRACKNUMBER=%n" -T "GENRE=%m" -T "COMMENT=%e" %s -o %d

TOC извлечённого CD

Трек | Старт | Длительность | Начальный сектор | Конечный сектор --------------------------------------------------------------------- 1 | 0:00.00 | 4:23.10 | 0 | 19734 2 | 4:23.10 | 4:35.33 | 19735 | 40392 3 | 8:58.43 | 5:10.68 | 40393 | 63710 4 | 14:09.36 | 7:42.68 | 63711 | 98428 5 | 21:52.29 | 5:10.30 | 98429 | 121708 6 | 27:02.59 | 5:11.46 | 121709 | 145079 7 | 32:14.30 | 7:58.25 | 145080 | 180954 8 | 40:12.55 | 4:11.60 | 180955 | 199839 9 | 44:24.40 | 6:59.02 | 199840 | 231266 10 | 51:23.42 | 6:03.08 | 231267 | 258499 11 | 57:26.50 | 6:55.27 | 258500 | 289651

Характеристики диапазона извлечения и сообщения об ошибках

Выбранный диапазон

Имя файла J:\BitComet\Black Country Communion\2011 - 2\Black Country Communion - 2.wav

Пиковый уровень 100.0 % Качество диапазона 100.0 % CRC теста 3237C1D1 CRC копии 3237C1D1 Копирование... OK

Ошибок не произошло

AccurateRip: сводка

Трек 1 нет в базе данныхТрек 2 нет в базе данныхТрек 3 нет в базе данныхТрек 4 нет в базе данныхТрек 5 нет в базе данныхТрек 6 нет в базе данныхТрек 7 нет в базе данныхТрек 8 нет в базе данныхТрек 9 нет в базе данныхТрек 10 нет в базе данныхТрек 11 нет в базе данных

Ни одного трека нет в базе AccurateRip

Конец отчёта
01. Revolutions Of The Machine (Intro) (1:45)
02. Black Country (3:45)
03. One Last Soul (3:59)
04. Crossfire (6:32)
05. Save Me (7:52)
06. The Battle For Hadrian''s Wall (4:42)
07. Beggarman (4:59)
08. Faithless (5:14)
09. Song Of Yesterday (9:11)
10. I Can See Your Spirit (5:12)
Exact Audio Copy V0.99 prebeta 4 from 23. January 2008

Отчёт EAC об извлечении, выполненном 28. февраля 2012, 20:16

Black Country Communion / Live Over Europe (CD 1)

Дисковод: PLEXTOR DVDR PX-880SA Adapter: 1 ID: 1

Режим чтения : ДостоверностьИспользование точного потока : ДаОтключение кэша аудио : ДаИспользование указателей C2 : Нет

Коррекция смещения при чтении : 6Способность читать области Lead-in и Lead-out : НетЗаполнение пропущенных сэмплов тишиной : ДаУдаление блоков с тишиной в начале и конце : НетПри вычислениях CRC использовались нулевые сэмплы : ДаИнтерфейс : Встроенный Win32-интерфейс для Win NT/2000

Выходной формат : Пользовательский кодировщикВыбранный битрейт : 1024 kBit/sКачество : ВысокийДобавление ID3-тэга : НетУтилита сжатия : C:\Program Files\Exact Audio Copy\FLAC\FLAC.EXEДополнительные параметры : -6 -V -T "ARTIST=%a" -T "TITLE=%t" -T "ALBUM=%g" -T "DATE=%y" -T "TRACKNUMBER=%n" -T "GENRE=%m" -T "COMMENT=%e" %s -o %d

TOC извлечённого CD

Трек | Старт | Длительность | Начальный сектор | Конечный сектор --------------------------------------------------------------------- 1 | 0:00.00 | 1:45.08 | 0 | 7882 2 | 1:45.08 | 3:45.52 | 7883 | 24809 3 | 5:30.60 | 3:59.03 | 24810 | 42737 4 | 9:29.63 | 6:31.74 | 42738 | 72136 5 | 16:01.62 | 7:52.06 | 72137 | 107542 6 | 23:53.68 | 4:42.44 | 107543 | 128736 7 | 28:36.37 | 4:59.13 | 128737 | 151174 8 | 33:35.50 | 5:14.54 | 151175 | 174778 9 | 38:50.29 | 9:11.68 | 174779 | 216171 10 | 48:02.22 | 5:12.03 | 216172 | 239574

Характеристики диапазона извлечения и сообщения об ошибках

Выбранный диапазон

Имя файла J:\BitComet\Black Country Communion\2012 - Live Over Europe\CD 1\Black Country Communion - Live Over Europe (CD 1).wav

Пиковый уровень 100.0 % Качество диапазона 100.0 % CRC теста B58D56CF CRC копии B58D56CF Копирование... OK

Ошибок не произошло

AccurateRip: сводка

Трек 1 нет в базе данныхТрек 2 нет в базе данныхТрек 3 нет в базе данныхТрек 4 нет в базе данныхТрек 5 нет в базе данныхТрек 6 нет в базе данныхТрек 7 нет в базе данныхТрек 8 нет в базе данныхТрек 9 нет в базе данныхТрек 10 нет в базе данных

Ни одного трека нет в базе AccurateRip

Конец отчёта
01. Cold (7:54)
02. The Ballad Of John Henry (10:43)
03. The Outsider (4:49)
04. The Great Divide (4:41)
05. Sista Jane (7:44)
06. Man In The Middle (4:49)
07. Burn (7:59)
Exact Audio Copy V0.99 prebeta 4 from 23. January 2008

Отчёт EAC об извлечении, выполненном 28. февраля 2012, 20:42

Black Country Communion / Live Over Europe (CD 2)

Дисковод: PLEXTOR DVDR PX-880SA Adapter: 1 ID: 1

Режим чтения : ДостоверностьИспользование точного потока : ДаОтключение кэша аудио : ДаИспользование указателей C2 : Нет

Коррекция смещения при чтении : 6Способность читать области Lead-in и Lead-out : НетЗаполнение пропущенных сэмплов тишиной : ДаУдаление блоков с тишиной в начале и конце : НетПри вычислениях CRC использовались нулевые сэмплы : ДаИнтерфейс : Встроенный Win32-интерфейс для Win NT/2000

Выходной формат : Пользовательский кодировщикВыбранный битрейт : 1024 kBit/sКачество : ВысокийДобавление ID3-тэга : НетУтилита сжатия : C:\Program Files\Exact Audio Copy\FLAC\FLAC.EXEДополнительные параметры : -6 -V -T "ARTIST=%a" -T "TITLE=%t" -T "ALBUM=%g" -T "DATE=%y" -T "TRACKNUMBER=%n" -T "GENRE=%m" -T "COMMENT=%e" %s -o %d

TOC извлечённого CD

Трек | Старт | Длительность | Начальный сектор | Конечный сектор --------------------------------------------------------------------- 1 | 0:00.00 | 7:54.39 | 0 | 35588 2 | 7:54.39 | 10:43.58 | 35589 | 83871 3 | 18:38.22 | 4:49.65 | 83872 | 105611 4 | 23:28.12 | 4:41.28 | 105612 | 126714 5 | 28:09.40 | 7:44.10 | 126715 | 161524 6 | 35:53.50 | 4:49.30 | 161525 | 183229 7 | 40:43.05 | 7:59.66 | 183230 | 219220

Характеристики диапазона извлечения и сообщения об ошибках

Выбранный диапазон

Имя файла J:\BitComet\Black Country Communion\2012 - Live Over Europe\CD 2\Black Country Communion - Live Over Europe (CD 2).wav

Пиковый уровень 99.9 % Качество диапазона 100.0 % CRC теста CA9A266F CRC копии CA9A266F Копирование... OK

Ошибок не произошло

AccurateRip: сводка

Трек 1 нет в базе данныхТрек 2 нет в базе данныхТрек 3 нет в базе данныхТрек 4 нет в базе данныхТрек 5 нет в базе данныхТрек 6 нет в базе данныхТрек 7 нет в базе данных

Ни одного трека нет в базе AccurateRip

Конец отчёта
01. Big Train (4:17)
02. This Is Your Time (4:32)
03. Midnight Sun (5:17)
04. Confessor (5:08)
05. Cry Freedom (5:09)
06. Afterglow (6:06)
07. Dandelion (4:02)
08. The Circle (7:01)
09. Common Man (5:26)
10. The Giver (5:23)
11. Crawl (5:30)

Обложка ещё запечатанного альбома
Exact Audio Copy V0.99 prebeta 5 from 4. May 2009

Отчёт EAC об извлечении, выполненном 25. октября 2012, 20:49

Black Country Communion / Afterglow

Дисковод: PLEXTOR DVDR PX-880SA Adapter: 1 ID: 0

Режим чтения : ДостоверностьИспользование точного потока : ДаОтключение кэша аудио : ДаИспользование указателей C2 : Нет

Коррекция смещения при чтении : 6Способность читать области Lead-in и Lead-out : НетЗаполнение пропущенных сэмплов тишиной : ДаУдаление блоков с тишиной в начале и конце : НетПри вычислениях CRC использовались нулевые сэмплы : ДаИнтерфейс : Установленный внешний ASPI-интерфейс

Выходной формат : Пользовательский кодировщикВыбранный битрейт : 1024 kBit/sКачество : ВысокийДобавление ID3-тэга : НетУтилита сжатия : C:\Program Files\Exact Audio Copy\FLAC\FLAC.EXEДополнительные параметры : -6 -V -T "ARTIST=%a" -T "TITLE=%t" -T "ALBUM=%g" -T "DATE=%y" -T "TRACKNUMBER=%n" -T "GENRE=%m" -T "COMMENT=%e" %s -o %d

TOC извлечённого CD

Трек | Старт | Длительность | Начальный сектор | Конечный сектор --------------------------------------------------------------------- 1 | 0:00.00 | 4:17.23 | 0 | 19297 2 | 4:17.23 | 4:32.15 | 19298 | 39712 3 | 8:49.38 | 5:17.44 | 39713 | 63531 4 | 14:07.07 | 5:07.74 | 63532 | 86630 5 | 19:15.06 | 5:09.11 | 86631 | 109816 6 | 24:24.17 | 6:06.10 | 109817 | 137276 7 | 30:30.27 | 4:02.17 | 137277 | 155443 8 | 34:32.44 | 7:01.25 | 155444 | 187043 9 | 41:33.69 | 5:26.65 | 187044 | 211558 10 | 47:00.59 | 5:23.03 | 211559 | 235786 11 | 52:23.62 | 5:30.10 | 235787 | 260546

Характеристики диапазона извлечения и сообщения об ошибках

Выбранный диапазон

Имя файла F:\BitComet\Black Country Communion\2012 - Afterglow\Black Country Communion - Afterglow.wav

Пиковый уровень 99.6 % Качество диапазона 100.0 % CRC теста 962A321E CRC копии 962A321E Копирование... OK

Ошибок не произошло

AccurateRip: сводка

Трек 1 нет в базе данныхТрек 2 нет в базе данныхТрек 3 нет в базе данныхТрек 4 нет в базе данныхТрек 5 нет в базе данныхТрек 6 нет в базе данныхТрек 7 нет в базе данныхТрек 8 нет в базе данныхТрек 9 нет в базе данныхТрек 10 нет в базе данныхТрек 11 нет в базе данных

Ни одного трека нет в базе AccurateRip

Конец отчёта
Доп. информация: Рип сделан собственноручно с оригинальных СД!!!
Сканы в папках.

Рип от ©СЁРФ-Маrаtones aka izia1956

Трекер:  [ 27-Окт-2012 13:53 ]

  

Скачать .torrent

Размер .torrent файла 19 KB


Размер: 2.19 GB
Хэш (hash) релиза: ef3ad32ad195fa96bc5e476a55e1b8a762dc8855

Еще никто не оставлял запись к записи скачать торрент Black Country Communion - Дискография . Будь первым!

!Обратная связь