Скачать через торрент музыку Electric Light Orchestra бесплатно без регистрации torrent

Если у вас наблюдаются проблемы со скриншотами, переходом по ссылками, скачиванием торрентов - проблемы в блокировщике рекламы AdBlock. #хорошегоДня!


Статистика раздачи
Размер:  499 MB   |    Зарегистрирован:  4 года 9 месяцев   |    .torrent скачан:  45 раз   |   
Раздают:  1  
   
Загрузка...
 
Автор Сообщение

Galfimbul

avatar Galfimbul


★●• Electric Light Orchestra - Balance Of Power •●★
Жанр: Rock/Electronic
Страна-производитель диска: United States
Год издания: 1986 or 1990
Издатель (лейбл): CBS Associated
Номер по каталогу: ZK 40048
Аудиокодек: FLAC (*.flac)
Тип рипа: image+.cue
Битрейт аудио: lossless
Продолжительность: 34:35
Наличие сканов в содержимом раздачи: да
Источник (релизер):

Balance Of Power:

01. Heaven Only Knows [0:02:57.02]
02. So Serious [0:02:43.55]
03. Getting To The Point [0:04:30.33]
04. Secret Lives [0:03:28.62]
05. Is It Alright [0:03:24.40]
06. Sorrow About To Fall [0:04:04.45]
07. Without Someone [0:03:51.05]
08. Calling America [0:03:28.30]
09. Endless Lies [0:02:59.73]
10. Send It [0:03:06.72]


Exact Audio Copy V1.0 beta 3 from 29. August 2011

EAC extraction logfile from 25. October 2012, 21:09

Electric Light Orchestra / Balance of Power

Used drive : Optiarc BD RW BD-5300S Adapter: 3 ID: 0

Read mode : SecureUtilize accurate stream : YesDefeat audio cache : YesMake use of C2 pointers : No

Read offset correction : 6Overread into Lead-In and Lead-Out : NoFill up missing offset samples with silence : YesDelete leading and trailing silent blocks : NoNull samples used in CRC calculations : YesUsed interface : Installed external ASPI interface

Used output format : User Defined EncoderSelected bitrate : 1024 kBit/sQuality : HighAdd ID3 tag : NoCommand line compressor : C:\Program Files (x86)\Exact Audio Copy\Flac\flac.exeAdditional command line options : -8 -V -T "Date=%year%" -T "Genre=%genre%" -T "COMMENT=ripped by bvstudio®" %source%

TOC of the extracted CD

Track | Start | Length | Start sector | End sector --------------------------------------------------------- 1 | 0:00.00 | 2:57.02 | 0 | 13276 2 | 2:57.02 | 2:43.55 | 13277 | 25556 3 | 5:40.57 | 4:30.33 | 25557 | 45839 4 | 10:11.15 | 3:28.62 | 45840 | 61501 5 | 13:40.02 | 3:24.40 | 61502 | 76841 6 | 17:04.42 | 4:04.45 | 76842 | 95186 7 | 21:09.12 | 3:51.05 | 95187 | 112516 8 | 25:00.17 | 3:28.30 | 112517 | 128146 9 | 28:28.47 | 2:59.73 | 128147 | 141644 10 | 31:28.45 | 3:06.72 | 141645 | 155666

Range status and errors

Selected range

Filename F:\ELO - Balance Of Power - 1986\Electric Light Orchestra - Balance of Power.wav

Peak level 100.0 % Extraction speed 7.2 X Range quality 100.0 % Test CRC 51AA3A1A Copy CRC 51AA3A1A Copy OK

No errors occurred

AccurateRip summary

Track 1 accurately ripped (confidence 6) [EAB3FB9E] (AR v1)Track 2 accurately ripped (confidence 6) [6586CAD1] (AR v1)Track 3 accurately ripped (confidence 6) [AB2A968C] (AR v1)Track 4 accurately ripped (confidence 6) [7DF22DC7] (AR v1)Track 5 accurately ripped (confidence 6) [D0352A6A] (AR v1)Track 6 accurately ripped (confidence 6) [BC41B080] (AR v1)Track 7 accurately ripped (confidence 6) [7EB0071D] (AR v1)Track 8 accurately ripped (confidence 6) [2015DE25] (AR v1)Track 9 accurately ripped (confidence 6) [37671E39] (AR v1)Track 10 accurately ripped (confidence 6) [E0B9DAC9] (AR v1)

All tracks accurately ripped

End of status report

==== Log checksum D1C661D15D471C512A22192672F7920DFCE43873F7AE361E1AF23DBCB438CB29 ====
foobar2000 1.1.16 beta 2 / Dynamic Range Meter 1.1.1log date: 2012-10-25 23:15:51

--------------------------------------------------------------------------------Analyzed: Electric Light Orchestra / Balance of Power--------------------------------------------------------------------------------

DR Peak RMS Duration Track--------------------------------------------------------------------------------DR12 -2.14 dB -15.56 dB 2:57 01-Heaven Only KnowsDR14 -0.10 dB -16.00 dB 2:44 02-So SeriousDR12 -2.44 dB -17.23 dB 4:30 03-Getting To The PointDR13 -0.19 dB -16.06 dB 3:29 04-Secret LivesDR12 -1.47 dB -15.11 dB 3:25 05-Is It AlrightDR13 -0.90 dB -15.72 dB 4:05 06-Sorrow About To FallDR12 -2.15 dB -17.95 dB 3:51 07-Without SomeoneDR13 -0.10 dB -15.21 dB 3:28 08-Calling AmericaDR13 0.00 dB -16.19 dB 3:00 09-Endless LiesDR13 -0.31 dB -15.85 dB 3:07 10-Send It--------------------------------------------------------------------------------

Number of tracks: 10Official DR value: DR13

Samplerate: 44100 HzChannels: 2Bits per sample: 16Bitrate: 844 kbpsCodec: FLAC================================================================================





Трекер:  [ 27-Окт-2012 13:52 ]

  

Скачать .torrent

Размер .torrent файла 20 KB


Размер: 499 MB
Хэш (hash) релиза: 1114f25af8673143e5cda90419c11af9d5c71d72

Торренты, похожие на Electric Light Orchestra скачать торрент

Форум Название Автор Размер S L Добавлен
Зарубежный Rock ·· (Progressive Rock) Electric Light Orchestra (ELO) - Mr. Blue Sky: The Very Best of Electric Light Orchestra (WEB) - 2012, FLAC (tracks+.cue), lossless _N_ 341540538326 MB 0 0 1349511480

11:18

6-Окт-12

Rосk | Mеtаl | Аltеrnаtivе, Рunk, Indереndеnt (losslеss) ·· (Prog Rock, Art Rock, Symphonic Rock) Electric Light Orchestra (ELO) - Electric Light Orchestra (40th anniversary edition) - 1971 (2012 remaster), FLAC (image+.cue), lossless Galfimbul 431103727411 MB 0 0 1340373720

17:02

22-Июн-12

Rосk | Mеtаl | Аltеrnаtivе, Рunk, Indереndеnt (mр3) ·· (Rock) Electric Light Orchestra - The Essential Electric Light Orchestra (2CD) - 2011, MP3, 320 kbps _N_ 354858923338 MB 0 0 1328854213

09:10

10-Фев-12

Rосk | Mеtаl | Аltеrnаtivе, Рunk, Indереndеnt (losslеss) ·· (Rock) Electric Light Orchestra - The Essential Electric Light Orchestra (2CD) - 2011, FLAC (image+.cue), lossless _N_ 12037273981.12 GB 0 0 1328854171

09:09

10-Фев-12

Rосk | Mеtаl | Аltеrnаtivе, Рunk, Indереndеnt (losslеss) ·· (Symphonic Rock) Electric Light Orchestra (ELO) - Eldorado - A Symphony By The Electric Light Orchestra [Remastered Edition, Reissue] - 2001, FLAC (image+.cue), lossless Galfimbul 434832316415 MB 0 0 1297859468

15:31

16-Фев-11

Rосk | Mеtаl | Аltеrnаtivе, Рunk, Indереndеnt (losslеss) ·· (Rock) Electric Light Orchestra (ELO) - The Very Best Of The Electric Light Orchestra (2CD) - 1990, APE (image+.cue), lossless Galfimbul 621943121593 MB 0 0 1297859054

15:24

16-Фев-11

Rосk | Mеtаl | Аltеrnаtivе, Рunk, Indереndеnt (mр3) ·· (rock) Wizzard (Roy Wood, Electric Light Orchestra) - Introducing Eddy and the Falcons - 1974, MP3 (tracks), 192 kbps Galfimbul 8073118877 MB 0 0 1499258116

15:35

5-Июл-17

Rосk | Mеtаl | Аltеrnаtivе, Рunk, Indереndеnt (mр3) ·· (Art Rock, Pop Rock) Electric Light Orchestra (ELO) - Discography (Дискография) - 1971-2015 (104 релиза, 146 CD), MP3, 174-320 kbps Galfimbul 2196177582720.45 GB 0 0 1453490423

22:20

22-Янв-16

Rосk | Mеtаl | Аltеrnаtivе, Рunk, Indереndеnt (losslеss) ·· (Progressive Rock) [CD] Electric Light Orchestra - Discovery - 1979, FLAC (image+.cue), lossless Galfimbul 273255183261 MB 0 0 1387974536

15:28

25-Дек-13

Rосk | Mеtаl | Аltеrnаtivе, Рunk, Indереndеnt (losslеss) ·· (Progressive Rock, Art Rock) Electric Light Orchestra (ELO) - Alright (single) - 2001, FLAC (image+.cue), lossless Galfimbul 4881307147 MB 0 0 1372107124

23:52

24-Июн-13

Rосk | Mеtаl | Аltеrnаtivе, Рunk, Indереndеnt (losslеss) ·· (Progressive Rock, Art Rock) Electric Light Orchestra (ELO) - Zoom (2013 Remastered) - 2013 (2001), FLAC (image+.cue), lossless Galfimbul 363228587346 MB 0 0 1371762542

00:09

21-Июн-13

Rосk | Mеtаl | Аltеrnаtivе, Рunk, Indереndеnt (mр3) ·· (Art Rock, Pop Rock) Electric Light Orchestra (ELO) - Discography (Дискография) (99 релизов, 140 CD) - 1971-2012, MP3, 174-320 kbps _N_ 2122720612119.77 GB 0 0 1371760252

23:30

20-Июн-13

Rосk | Mеtаl | Аltеrnаtivе, Рunk, Indереndеnt (losslеss) ·· (Rock, Progressive Rock) Electric Light Orchestra - Live - 2013 (Frontiers FR CD 595E Italy), WAVPack (image+.cue), lossless Galfimbul 443166606423 MB 0 0 1371113403

11:50

13-Июн-13

Rосk | Mеtаl | Аltеrnаtivе, Рunk, Indереndеnt (losslеss) ·· (Electronic, Rock) Electric Light Orchestra - Discovery - 1986, APE (image+.cue), lossless Galfimbul 272054640259 MB 0 0 1362366578

06:09

4-Мар-13

Зарубежный Rock ·· (Rock) Electric Light Orchestra - Mr. Blue Sky: The Very Best of - 2012, MP3, 320 kbps Galfimbul 118786404113 MB 0 0 1349623920

18:32

7-Окт-12

Зарубежный Rock ·· (Rock, Progressive Rock, Art Rock) Electric Light Orchestra (X2) - Eldorado / Secret Message - 1974/1983 (2007), FLAC (image+.cue), lossless _N_ 712261360679 MB 0 0 1340861340

08:29

28-Июн-12

Rосk | Mеtаl | Аltеrnаtivе, Рunk, Indереndеnt (losslеss) ·· (Rock) Dave Morgan & Richard Tandy (ex- ELO - Electric Light Orchestra) - Earthrise - 1986 (Remaster Edition 2011, Bonus Tracks), FLAC (tracks+.cue), lossless _N_ 361786395345 MB 0 0 1335009480

14:58

21-Апр-12

Rосk | Mеtаl | Аltеrnаtivе, Рunk, Indереndеnt (losslеss) ·· (Progressive / Pop / Symphonic Rock) Electric Light Orchestra (ELO) - Balance Of Power (24 Bit remastered 2010) - 1986, FLAC (image+.cue), lossless Galfimbul 269042582257 MB 0 0 1327243139

17:38

22-Янв-12

Rосk | Mеtаl | Аltеrnаtivе, Рunk, Indереndеnt (losslеss) ·· (Rock, Progressive Rock, Symphonic Rock) Electric Light Orchestra - The Classic Albums Collection (11CD Box Set) - 2011 (Sony Music Entertainment 88697873262), FLAC (image+.cue), lossless uzi2009 50214135394.68 GB 0 0 1325125863

05:31

29-Дек-11

Еще никто не оставлял запись к записи скачать торрент Electric Light Orchestra . Будь первым!

!Обратная связь