Скачать через торрент музыку Gotthard - Firebirth бесплатно без регистрации torrent

Если у вас наблюдаются проблемы со скриншотами, переходом по ссылками, скачиванием торрентов - проблемы в блокировщике рекламы AdBlock. #хорошегоДня!


Статистика раздачи
Размер:  455 MB   |    Зарегистрирован:  4 года 11 месяцев   |    .torrent скачан:  14 раз   |   
Раздают:  1  
   
Загрузка...
 
Автор Сообщение

Galfimbul

avatar Galfimbul


Gotthard - Firebirth

Жанр: Hard Rock, Hard-n-Heavy
Страна-производитель диска: Switzerland
Год издания диска: 2012
Издатель (лейбл): G.Records
Номер по каталогу: G023
Страна: Switzerland
Аудио кодек: FLAC (*.flac)
Тип рипа: image+.cue
Битрейт аудио: lossless
Продолжительность: 00:56:10
Источник (релизер): Byashka 2011/swint68
Наличие сканов в содержимом раздачи: да

Треклист:

01. Starlight 04:27
02. Give Me Real 03:39
03. Remember It''s Me 03:28
04. Fight 03:27
05. Yippie Aye Yay 04:39
06. Tell Me 03:16
07. Shine 03:49
08. The Story''s Over 04:09
09. Right On 03:54
10. S.O.S. 03:23
11. Take It All Back 03:16
12. I Can 03:13
13. Where Are You 04:20
14. I Love You Honey (Exclusive Track) 03:05
15. Starlight Acoustic-Version (Bonus Track) 03:57
Exact Audio Copy V0.99 prebeta 5 from 4. May 2009

Отчёт EAC об извлечении, выполненном 28. сентября 2012, 18:19

Gotthard / Firebirth [lim.ed.]

Дисковод: TEAC DW-552GA Adapter: 3 ID: 1

Режим чтения : ДостоверностьИспользование точного потока : ДаОтключение кэша аудио : ДаИспользование указателей C2 : Нет

Коррекция смещения при чтении : 6Способность читать области Lead-in и Lead-out : НетЗаполнение пропущенных сэмплов тишиной : ДаУдаление блоков с тишиной в начале и конце : НетПри вычислениях CRC использовались нулевые сэмплы : ДаИнтерфейс : Установленный внешний ASPI-интерфейс

Выходной формат : Внутренние WAV-операцииФормат сэмплов : 44.100 Гц; 16 бит; стерео

TOC извлечённого CD

Трек | Старт | Длительность | Начальный сектор | Конечный сектор --------------------------------------------------------------------- 1 | 0:00.00 | 4:27.69 | 0 | 20093 2 | 4:27.69 | 3:39.36 | 20094 | 36554 3 | 8:07.30 | 3:28.53 | 36555 | 52207 4 | 11:36.08 | 3:27.04 | 52208 | 67736 5 | 15:03.12 | 4:39.48 | 67737 | 88709 6 | 19:42.60 | 3:16.49 | 88710 | 103458 7 | 22:59.34 | 3:49.35 | 103459 | 120668 8 | 26:48.69 | 4:09.61 | 120669 | 139404 9 | 30:58.55 | 3:54.21 | 139405 | 156975 10 | 34:53.01 | 3:23.21 | 156976 | 172221 11 | 38:16.22 | 3:16.69 | 172222 | 186990 12 | 41:33.16 | 3:13.21 | 186991 | 201486 13 | 44:46.37 | 4:20.36 | 201487 | 221022 14 | 49:06.73 | 3:05.29 | 221023 | 234926 15 | 52:12.27 | 3:57.23 | 234927 | 252724

Характеристики диапазона извлечения и сообщения об ошибках

Выбранный диапазон

Имя файла D:\Music\Byashka\Gotthard - Firebirth [lim.ed.].wav

Пиковый уровень 100.0 % Качество диапазона 100.0 % CRC копии F6049C37 Копирование... OK

Ошибок не произошло

Конец отчёта
REM GENRE "Hard rock"REM DATE 2012REM DISCID F20D290FREM COMMENT "ExactAudioCopy v0.99pb5"PERFORMER "Gotthard"TITLE "Firebirth [lim.ed.]"FILE "Gotthard - Firebirth [lim.ed.].flac" WAVE TRACK 01 AUDIO TITLE "Starlight" PERFORMER "Gotthard" INDEX 01 00:00:00 TRACK 02 AUDIO TITLE "Give me real " PERFORMER "Gotthard" INDEX 00 04:27:01 INDEX 01 04:27:69 TRACK 03 AUDIO TITLE "Remember it''s me" PERFORMER "Gotthard" INDEX 00 08:06:31 INDEX 01 08:07:30 TRACK 04 AUDIO TITLE "Fight" PERFORMER "Gotthard" INDEX 00 11:35:15 INDEX 01 11:36:08 TRACK 05 AUDIO TITLE "Yippie aye yay " PERFORMER "Gotthard" INDEX 00 15:01:62 INDEX 01 15:03:12 TRACK 06 AUDIO TITLE "Tell me " PERFORMER "Gotthard" INDEX 00 19:40:66 INDEX 01 19:42:60 TRACK 07 AUDIO TITLE "Shine" PERFORMER "Gotthard" INDEX 00 22:58:32 INDEX 01 22:59:34 TRACK 08 AUDIO TITLE "The story''s over" PERFORMER "Gotthard" INDEX 00 26:47:69 INDEX 01 26:48:69 TRACK 09 AUDIO TITLE "Right on " PERFORMER "Gotthard" INDEX 00 30:58:05 INDEX 01 30:58:55 TRACK 10 AUDIO TITLE "SOS" PERFORMER "Gotthard" INDEX 00 34:51:45 INDEX 01 34:53:01 TRACK 11 AUDIO TITLE "Take it all back" PERFORMER "Gotthard" INDEX 00 38:15:38 INDEX 01 38:16:22 TRACK 12 AUDIO TITLE "I can " PERFORMER "Gotthard" INDEX 00 41:33:00 INDEX 01 41:33:16 TRACK 13 AUDIO TITLE "Where are you" PERFORMER "Gotthard" INDEX 00 44:43:37 INDEX 01 44:46:37 TRACK 14 AUDIO TITLE "I love you honey" PERFORMER "Gotthard" INDEX 00 49:05:25 INDEX 01 49:06:73 TRACK 15 AUDIO TITLE "Starlight-acoustic vers. " PERFORMER "Gotthard" INDEX 00 52:11:31 INDEX 01 52:12:27
-----------------------

DON''T MODIFY THIS FILE

-----------------------

PERFORMER: auCDtect Task Manager, ver. 1.5.1RC6 build 1.5.1.7Copyright (c) 2008-2010 y-soft. All rights reservedhttp://y-soft.org

ANALYZER: auCDtect: CD records authenticity detector, version 0.8.2Copyright (c) 2004 Oleg Berngardt. All rights reserved.Copyright (c) 2004 Alexander Djourik. All rights reserved.

FILE: Gotthard - Firebirth [lim.ed.].wav Size: 594409244 Hash: A9B26452254EC33649DB4C40C01E2E40 Accuracy: -m0 Conclusion: CDDA 100% Signature: E4522CA8549D3315EFD5574C10CE79821FA8DA7A
Доп. информация:
Nic Maeder - vocals
Leo Leoni - guitars, backing vocals
Freddy Scherer - guitars, backing vocals
Marc Lynn - bass
Hena Habegger - drums, percussion
Nicolo Fragile - keyboards


Трекер:  [ 27-Окт-2012 13:52 ]

  

Скачать .torrent

Размер .torrent файла 19 KB


Размер: 455 MB
Хэш (hash) релиза: 82a483645ae9325d439ee0a616182ef12ec481ed

Торренты, похожие на Gotthard - Firebirth скачать торрент

Форум Название Автор Размер S L Добавлен
Rосk | Mеtаl | Аltеrnаtivе, Рunk, Indереndеnt (losslеss) ·· (Hard Rock) Gotthard - Firebirth (Limited Edition) - 2012, FLAC (tracks), lossless Leito57 387480333370 MB 0 0 1338979860

13:51

6-Июн-12

Rосk | Mеtаl | Аltеrnаtivе, Рunk, Indереndеnt (mр3) ·· (Hard Rock) Gotthard - Firebirth (Limited Edition) Digipack - 2012, MP3 (tracks), 320 kbps Galfimbul 135598292129 MB 0 0 1339265940

21:19

9-Июн-12

Rосk | Mеtаl | Аltеrnаtivе, Рunk, Indереndеnt (mр3) ·· (Hard Rock) Gotthard - Firebirth - 2012, MP3, 320 kbps _N_ 118365747113 MB 0 0 1338526440

07:54

1-Июн-12

Еще никто не оставлял запись к записи скачать торрент Gotthard - Firebirth . Будь первым!

!Обратная связь