Скачать через торрент музыку Esthetic Pale - Hope бесплатно без регистрации torrent

Если у вас наблюдаются проблемы со скриншотами, переходом по ссылками, скачиванием торрентов - проблемы в блокировщике рекламы AdBlock. #хорошегоДня!


Статистика раздачи
Размер:  457 MB   |    Зарегистрирован:  4 года 9 месяцев   |    .torrent скачан:  17 раз   |   
Раздают:  1  
   
Загрузка...
 
Автор Сообщение

Galfimbul

avatar Galfimbul


Esthetic Pale - Hope

Жанр: Neo Progressive
Год выпуска диска: 2000
Страна: Netherlands
Label: Spice Records
Catalog Nr.: 0038P
Аудио кодек: FLAC
Тип рипа: image+.cue (test&copy)
Битрейт аудио: lossless
Продолжительность: 66:42
Источник: свой старый рип


Трэклист:

1. The Seeds (11:49)
2. The Ivory Tower (6:56)
3. See You There (8:35)
4. Lifetime (13:46)
5. Summer (9:49)
6. Hope (1:53)
7. Laura (13:54)

Total Time: 66:42

Музыканты:

- Melanie Auer / vocals
- Claus Peter Fuhrmann / keyboards
- Joe Habernoll / drums
- Matthias Ibelshäuser / guitars
- Katarina Nonhebel / vocals
- Sam Vöbringer / bass

Об альбоме: Дебютный релиз интересного немецкого нео-прогового коллектива, выпустившего всего два номерных и один живом альбом.
Очень энергичный нео, с женским вокалом и ярко выраженым фолковым "замесом". ПА cравнивают эту команду с Flamborough Head, Renaissance, и Karnataka.
Рип лежит давно, но коврики удалось раздобыть только вчера, за что огромное спасибо BeoKuzma (aka Pendragon7).
Теперь этим материалом не стыдно и поделиться. Второй альбом (в лосслесс) по прежнему в розыске.
Exact Audio Copy V0.99 prebeta 5 from 4. May 2009

EAC extraction logfile from 12. December 2009, 23:54

Esthetic Pale / Hope

Used drive : ASUS DRW-20B1ST Adapter: 4 ID: 0

Read mode : Secure
Utilize accurate stream : Yes
Defeat audio cache : Yes
Make use of C2 pointers : No

Read offset correction : 6
Overread into Lead-In and Lead-Out : No
Fill up missing offset samples with silence : Yes
Delete leading and trailing silent blocks : No
Null samples used in CRC calculations : Yes
Used interface : Native Win32 interface for Win NT & 2000

Used output format : User Defined Encoder
Selected bitrate : 1024 kBit/s
Quality : High
Add ID3 tag : Yes
Command line compressor : C:\Program Files\flac.exe
Additional command line options : -6 -V -T "ARTIST=%a" -T "TITLE=%t" -T "ALBUM=%g" -T "DATE=%y" -T "TRACKNUMBER=%n" -T "GENRE=%m" -T "COMMENT=%e" %s -o %d

TOC of the extracted CD

Track | Start | Length | Start sector | End sector
---------------------------------------------------------
1 | 0:00.00 | 11:51.24 | 0 | 53348
2 | 11:51.24 | 6:55.74 | 53349 | 84547
3 | 18:47.23 | 8:35.26 | 84548 | 123198
4 | 27:22.49 | 13:46.10 | 123199 | 185158
5 | 41:08.59 | 9:49.06 | 185159 | 229339
6 | 50:57.65 | 1:54.36 | 229340 | 237925
7 | 52:52.26 | 13:54.45 | 237926 | 300520

Range status and errors

Selected range

Filename M:\EAC\sole-survivor\Esthetic Pale\Esthetic Pale - Hope.wav

Peak level 96.6 %
Range quality 100.0 %
Test CRC E786DEBE
Copy CRC E786DEBE
Copy OK

No errors occurred

AccurateRip summary

Track 1 accurately ripped (confidence 1) [A529D982]
Track 2 accurately ripped (confidence 1) [89347766]
Track 3 accurately ripped (confidence 1) [5334A750]
Track 4 accurately ripped (confidence 1) [FD086E1E]
Track 5 accurately ripped (confidence 1) [7DEC9D5C]
Track 6 accurately ripped (confidence 1) [6A534182]
Track 7 accurately ripped (confidence 1) [535C07CE]

All tracks accurately ripped

End of status report
[CUETools log; Date: 24.10.2012 20:10:38; Version: 2.1.4]
[CTDB TOCID: Pu0gjx33o.mB4xUnVYZNY6XTPWQ-] disk not present in database.
[AccurateRip ID: 0012865a-006e3d30-560fa607] found.
Track [ CRC | V2 ] Status
01 [a529d982|699de304] (2+0/2) Accurately ripped
02 [89347766|94ccf822] (2+0/2) Accurately ripped
03 [5334a750|aab1aaa4] (2+0/2) Accurately ripped
04 [fd086e1e|b34e3dc3] (2+0/2) Accurately ripped
05 [7dec9d5c|77d550f3] (2+0/2) Accurately ripped
06 [6a534182|f6f496d9] (2+0/2) Accurately ripped
07 [535c07ce|7b117d8b] (2+0/2) Accurately ripped

Track Peak [ CRC32 ] [W/O NULL] [ LOG ]
-- 96,6 [E786DEBE] [5CFF8513] CRC32
01 96,6 [75FC95AB] [4ECE354F]
02 96,5 [9C194BDA] [F93B4637]
03 96,6 [35BEB53B] [1080F2D8]
04 96,6 [3D3EFE48] [74F00A81]
05 96,6 [17747FCC] [F60C046C]
06 50,6 [F2BE7503] [D50445D2]
07 96,6 [595C64C8] [949167D6]
Коврики 300dpi в комплекте.
Progarchives info

Трекер:  [ 27-Окт-2012 13:52 ]

  

Скачать .torrent

Размер .torrent файла 18 KB


Размер: 457 MB
Хэш (hash) релиза: 2f2aa1b15ff93df3938284c58487ce9789d9c67f

Еще никто не оставлял запись к записи скачать торрент Esthetic Pale - Hope . Будь первым!

!Обратная связь