Скачать через торрент музыку бесплатно без регистрации torrent

Если у вас наблюдаются проблемы со скриншотами, переходом по ссылками, скачиванием торрентов - проблемы в блокировщике рекламы AdBlock. #хорошегоДня!


Статистика раздачи
Размер:  493 MB   |    Зарегистрирован:  4 года 9 месяцев   |    .torrent скачан:  27 раз   |   
Раздают:  2  
   
Загрузка...
 
Автор Сообщение

Galfimbul

avatar Galfimbul


Jam On Guitars

Жанр: Instrumental Rock
Страна-производитель диска: USA
Год издания: 2009
Издатель (лейбл): Magnatude Records
Номер по каталогу: MT-2318-2
Аудиокодек: FLAC (*.flac)
Тип рипа: image+.cue
Битрейт аудио: lossless
Продолжительность: 1:12:03
Источник (релизер): Own collection
Наличие сканов в содержимом раздачи: да
Треклист:
01. Took The Words Right Outta My Mouth 4:56 Michael Lee Firkins
02. Free In The Park 4:35 Steve Morse
03. Scorch 7:14 Alex Skolnick Trio
04. Dance To The Music 4:32 The Clinton Administration
05. Gulab Jammin 5:46 The Fareed Haque Group
06. Downside Up 8:26 Oz Noy & Mike Stern
07. Lake Shore Drive 8:19 Chris Poland and Jake Cinninger
08. Flashlight 6:54 The Clinton Administration
09. Dump Truck 4:13 Will Bernard
10. Rome 5:58 Cameron Williams and Jess Franklin
11. Disdots 6:50 Ed Wynne
12. Starlite Jamboree 4:15 Bill Cutler, Jerry Garcia, Mark Karan
Exact Audio Copy V1.0 beta 3 from 29. August 2011

EAC extraction logfile from 23. October 2012, 1:28

Various Artists / Jam On Guitars

Used drive : PLDS DVD-RW DS8A8SH Adapter: 0 ID: 1

Read mode : SecureUtilize accurate stream : YesDefeat audio cache : YesMake use of C2 pointers : No

Read offset correction : 6Overread into Lead-In and Lead-Out : YesFill up missing offset samples with silence : YesDelete leading and trailing silent blocks : NoNull samples used in CRC calculations : YesUsed interface : Native Win32 interface for Win NT & 2000

Used output format : Internal WAV RoutinesSample format : 44.100 Hz; 16 Bit; Stereo

TOC of the extracted CD

Track | Start | Length | Start sector | End sector --------------------------------------------------------- 1 | 0:00.00 | 4:56.11 | 0 | 22210 2 | 4:56.11 | 4:35.31 | 22211 | 42866 3 | 9:31.42 | 7:14.66 | 42867 | 75482 4 | 16:46.33 | 4:32.32 | 75483 | 95914 5 | 21:18.65 | 5:46.42 | 95915 | 121906 6 | 27:05.32 | 8:26.08 | 121907 | 159864 7 | 35:31.40 | 8:19.23 | 159865 | 197312 8 | 43:50.63 | 6:54.69 | 197313 | 228431 9 | 50:45.57 | 4:13.18 | 228432 | 247424 10 | 54:59.00 | 5:58.37 | 247425 | 274311 11 | 60:57.37 | 6:50.23 | 274312 | 305084 12 | 67:47.60 | 4:15.20 | 305085 | 324229

Range status and errors

Selected range

Filename D:\Private\Music - to burn\To backup\Various Artists - Jam On Guitars (2009)\Jam On Guitars.wav

Peak level 100.0 % Extraction speed 4.2 X Range quality 100.0 % Test CRC C6B89601 Copy CRC C6B89601 Copy OK

No errors occurred

AccurateRip summary

Track 1 not present in databaseTrack 2 not present in databaseTrack 3 not present in databaseTrack 4 not present in databaseTrack 5 not present in databaseTrack 6 not present in databaseTrack 7 not present in databaseTrack 8 not present in databaseTrack 9 not present in databaseTrack 10 not present in databaseTrack 11 not present in databaseTrack 12 not present in database

None of the tracks are present in the AccurateRip database

End of status report

---- CUETools DB Plugin V2.1.3

[CTDB TOCID: ik2E32dlzqKHYFi_LYUOB_xxOAY-] found, Submit result: already submitted[e64bc029] (1/1) Accurately ripped

==== Log checksum 41C4D2EF5C7F5411C2D8D06C3B3829B1AB1A5800353666915F6B16CAF31F2AAF ====
REM GENRE "Instrumental Rock"REM DATE 2009REM DISCID 9D10E30CREM COMMENT "ExactAudioCopy v1.0b3"PERFORMER "Various Artists"TITLE "Jam On Guitars"FILE "Jam On Guitars.flac" WAVE TRACK 01 AUDIO TITLE "Took The Words Right Outta My Mouth" PERFORMER "Michael Lee Firkins" INDEX 01 00:00:00 TRACK 02 AUDIO TITLE "Free In The Park" PERFORMER "Steve Morse" INDEX 00 04:55:09 INDEX 01 04:56:11 TRACK 03 AUDIO TITLE "Scorch" PERFORMER "Alex Skolnick Trio" INDEX 00 09:30:18 INDEX 01 09:31:42 TRACK 04 AUDIO TITLE "Dance To The Music" PERFORMER "The Clinton Administration" INDEX 00 16:44:64 INDEX 01 16:46:33 TRACK 05 AUDIO TITLE "Gulab Jammin" PERFORMER "The Fareed Haque Group" INDEX 00 21:18:16 INDEX 01 21:18:65 TRACK 06 AUDIO TITLE "Downside Up" PERFORMER "Oz Noy & Mike Stern" INDEX 00 27:04:37 INDEX 01 27:05:32 TRACK 07 AUDIO TITLE "Lake Shore Drive" PERFORMER "Chris Poland and Jake Cinninger" INDEX 00 35:30:60 INDEX 01 35:31:40 TRACK 08 AUDIO TITLE "Flashlight" PERFORMER "The Clinton Administration" INDEX 00 43:49:66 INDEX 01 43:50:63 TRACK 09 AUDIO TITLE "Dump Truck" PERFORMER "Will Bernard" INDEX 00 50:43:70 INDEX 01 50:45:57 TRACK 10 AUDIO TITLE "Rome" PERFORMER "Cameron Williams and Jess Franklin" INDEX 00 54:58:29 INDEX 01 54:59:00 TRACK 11 AUDIO TITLE "Disdots" PERFORMER "Ed Wynne" INDEX 00 60:56:51 INDEX 01 60:57:37 TRACK 12 AUDIO TITLE "Starlite Jamboree" PERFORMER "Bill Cutler, Jerry Garcia, Mark Karan" INDEX 00 67:47:02 INDEX 01 67:47:60
AUDIOCHECKER v2.0 beta (build 457) - by Dester - <a href="mailto:opdester@freemail.hu" class="postLink">opdester@freemail.hu</a>~~~~~~~~~~~~~~~~~~~~~~~~~~~~~~~~~~-=== DO NOT EDIT THIS FILE! ===-

Path: ...\Various Artists - Jam On Guitars (2009)

1 -=- Jam On Guitars.wav -=- MPEG (95%)

125030292
The Jam Band Culture has produced some of the most inventive and diverse music that the rock genre has seen in a long time. Influences from blues to folk to jazz and back to hard rock are intertwined, combined and refined. The guitar has been the instrument that all this musical abundance is built around. Magnatude Records has captured performances by some of the leading lights in this field. “Jam On Guitars” illustrates the fact that it’s not about technique. It is about substance. Steve Morse, Jake Cinninger, Alex Skolnick and Michael Lee Firkins join an outstanding line up of players


Трекер:  [ 27-Окт-2012 13:52 ]

  

Скачать .torrent

Размер .torrent файла 20 KB


Размер: 493 MB
Хэш (hash) релиза: 8d613984d1af7c8d6b532bc0dcb399091f5caf76

Еще никто не оставлял запись к записи скачать торрент . Будь первым!

!Обратная связь