Скачать через торрент музыку Murphy Blend - First Loss - 1971 бесплатно без регистрации torrent

Если у вас наблюдаются проблемы со скриншотами, переходом по ссылками, скачиванием торрентов - проблемы в блокировщике рекламы AdBlock. #хорошегоДня!


Статистика раздачи
Размер:  439 MB   |    Зарегистрирован:  4 года 9 месяцев   |    .torrent скачан:  13 раз   |   
Раздают:  1  
   
Загрузка...
 
Автор Сообщение

Galfimbul

avatar Galfimbul


Murphy Blend / First Loss

Жанр: Progressive Rock
Страна-производитель диска: UK
Год издания: 2011
Издатель (лейбл): Esoteric Rec/Reactive
Номер по каталогу: EREACD 1013
Страна: Germany
Аудиокодек: FLAC (*.flac)
Тип рипа: image+.cue
Битрейт аудио: lossless
Продолжительность: 35:48
Источник (релизер): Own Collection
Наличие сканов в содержимом раздачи: да
Треклист:
1. At First
2. Speed is Coming Back
3. Past Has Gone
4. Präludium/Use Your Feet
5. Firt Loss
6. Funny Guys
7. Happiness

Дополнительная Инфа: У этого издания ОЧЕНЬ хороший Динамический диапазон (аж 11). На моей аппаратуре звучит просто отлично.
xact Audio Copy V0.99 prebeta 5 from 4. May 2009

Отчёт EAC об извлечении, выполненном 23. октября 2012, 19:28

Murphy Blend / First Loss

Дисковод: ASUS DRW-24B1ST Adapter: 4 ID: 0

Режим чтения : ДостоверностьИспользование точного потока : ДаОтключение кэша аудио : ДаИспользование указателей C2 : Нет

Коррекция смещения при чтении : 6Способность читать области Lead-in и Lead-out : НетЗаполнение пропущенных сэмплов тишиной : ДаУдаление блоков с тишиной в начале и конце : НетПри вычислениях CRC использовались нулевые сэмплы : ДаИнтерфейс : Встроенный Win32-интерфейс для Win NT/2000

Выходной формат : Внутренние WAV-операцииФормат сэмплов : 44.100 Гц; 16 бит; стерео

TOC извлечённого CD

Трек | Старт | Длительность | Начальный сектор | Конечный сектор --------------------------------------------------------------------- 1 | 0:00.00 | 4:38.41 | 0 | 20890 2 | 4:38.41 | 6:03.19 | 20891 | 48134 3 | 10:41.60 | 7:37.01 | 48135 | 82410 4 | 18:18.61 | 5:39.22 | 82411 | 107857 5 | 23:58.08 | 7:53.12 | 107858 | 143344 6 | 31:51.20 | 3:50.52 | 143345 | 160646 7 | 35:41.72 | 0:05.56 | 160647 | 161077

Характеристики диапазона извлечения и сообщения об ошибках

Выбранный диапазон

Имя файла H:\001-Torrents\002 - My Seed\2012\10 - October\01 - Murphy Blend - First Loss\Murphy Blend - First Loss.wav

Пиковый уровень 99.4 % Качество диапазона 100.0 % CRC копии 990A7AD0 Копирование... OK

Ошибок не произошло

AccurateRip: сводка

Трек 1 точность не определена (достоверность 1) [1F917604], AccurateRip вернул [B824C318]Трек 2 точность не определена (достоверность 1) [230C6BEB], AccurateRip вернул [0A4D4AAF]Трек 3 точность не определена (достоверность 1) [57576207], AccurateRip вернул [B550582B]Трек 4 точность не определена (достоверность 1) [A7D996F5], AccurateRip вернул [24E4E277]Трек 5 точность не определена (достоверность 1) [354E6BB5], AccurateRip вернул [2798E1A9]Трек 6 точность не определена (достоверность 1) [48138A06], AccurateRip вернул [1140DF3C]Трек 7 нет в базе данных

6 трек(и) не удалось проверить на точность 1 трек(и) не содержатся в базе AccurateRip

Ни один трек не прошёл проверки на точностьВ вашей базе может быть иной вариант штамповки диска

Конец отчёта


Трекер:  [ 27-Окт-2012 13:51 ]

  

Скачать .torrent

Размер .torrent файла 18 KB


Размер: 439 MB
Хэш (hash) релиза: 1ab841cb009cdb7150ec1b1d59fc5bf5f6f61275

Еще никто не оставлял запись к записи скачать торрент Murphy Blend - First Loss - 1971 . Будь первым!

!Обратная связь