Скачать через торрент музыку Out of Focus - Four Letter Monday Afternoon - 1972 бесплатно без регистрации torrent

Если у вас наблюдаются проблемы со скриншотами, переходом по ссылками, скачиванием торрентов - проблемы в блокировщике рекламы AdBlock. #хорошегоДня!


Статистика раздачи
Размер:  837 MB   |    Зарегистрирован:  4 года 9 месяцев   |    .torrent скачан:  7 раз   |   
Раздают:  1  
   
Загрузка...
 
Автор Сообщение

Galfimbul

avatar Galfimbul


Out of Focus / Four Letter Monday Afternoon

Жанр: Krautrock, Jazz-Rock
Страна-производитель диска: UK
Год издания: 1972 (2010)
Издатель (лейбл): Esoteric (Reactive)
Номер по каталогу: EREACD 21011
Страна: Germany
Аудиокодек: FLAC (*.flac)
Тип рипа: image+.cue
Битрейт аудио: lossless
Продолжительность: 46:28 ; 48:11
Источник (релизер): Own Collection
Наличие сканов в содержимом раздачи: да
Треклист:
Disc One
1 L.S.B.
2 When I''m Sleeping
3 Tsajama
4 Black Cards
5 Where Have You Been

Disc Two
1 Huchen 55,A
2 Huchen 55,B
3 Huchen 55,C
Exact Audio Copy V0.99 prebeta 5 from 4. May 2009  

Отчёт EAC об извлечении, выполненном 24. октября 2012, 9:57

Out Of Focus / Four Letter Monday Afternoon (CD1)

Дисковод: ASUS DRW-24B1ST Adapter: 4 ID: 0

Режим чтения : Достоверность
Использование точного потока : Да
Отключение кэша аудио : Да
Использование указателей C2 : Нет

Коррекция смещения при чтении : 6
Способность читать области Lead-in и Lead-out : Нет
Заполнение пропущенных сэмплов тишиной : Да
Удаление блоков с тишиной в начале и конце : Нет
При вычислениях CRC использовались нулевые сэмплы : Да
Интерфейс : Встроенный Win32-интерфейс для Win NT/2000

Выходной формат : Внутренние WAV-операции
Формат сэмплов : 44.100 Гц; 16 бит; стерео

TOC извлечённого CD

Трек | Старт | Длительность | Начальный сектор | Конечный сектор
---------------------------------------------------------------------
1 | 0:00.00 | 17:39.46 | 0 | 79470
2 | 17:39.46 | 4:06.02 | 79471 | 97922
3 | 21:45.48 | 9:25.54 | 97923 | 140351
4 | 31:11.27 | 9:40.09 | 140352 | 183860
5 | 40:51.36 | 5:37.20 | 183861 | 209155

Характеристики диапазона извлечения и сообщения об ошибках

Выбранный диапазон

Имя файла H:\001-Torrents\002 - My Seed\2012\10 - October\02 - Out Of Focus\1972 - Four Letter Monday\Out Of Focus - Four Letter Monday Afternoon (CD1).wav

Пиковый уровень 99.4 %
Качество диапазона 100.0 %
CRC копии AC0CF568
Копирование... OK

Ошибок не произошло

AccurateRip: сводка

Трек 1 точное извлечение (доверие 3) [09DCD1C3]
Трек 2 точное извлечение (доверие 3) [FAC1A8B3]
Трек 3 точное извлечение (доверие 3) [8DA91187]
Трек 4 точное извлечение (доверие 3) [674D43F5]
Трек 5 точное извлечение (доверие 3) [81DBF308]

Все треки извлечены точно

Конец отчёта
Exact Audio Copy V0.99 prebeta 5 from 4. May 2009

Отчёт EAC об извлечении, выполненном 23. октября 2012, 22:45

Out Of Focus / Four Letter Monday Afternoon (CD2)

Дисковод: ASUS DRW-24B1ST Adapter: 4 ID: 0

Режим чтения : ДостоверностьИспользование точного потока : ДаОтключение кэша аудио : ДаИспользование указателей C2 : Нет

Коррекция смещения при чтении : 6Способность читать области Lead-in и Lead-out : НетЗаполнение пропущенных сэмплов тишиной : ДаУдаление блоков с тишиной в начале и конце : НетПри вычислениях CRC использовались нулевые сэмплы : ДаИнтерфейс : Встроенный Win32-интерфейс для Win NT/2000

Выходной формат : Внутренние WAV-операцииФормат сэмплов : 44.100 Гц; 16 бит; стерео

TOC извлечённого CD

Трек | Старт | Длительность | Начальный сектор | Конечный сектор --------------------------------------------------------------------- 1 | 0:00.00 | 9:19.39 | 0 | 41963 2 | 9:19.39 | 14:31.52 | 41964 | 107340 3 | 23:51.16 | 24:19.34 | 107341 | 216799

Характеристики диапазона извлечения и сообщения об ошибках

Выбранный диапазон

Имя файла H:\001-Torrents\002 - My Seed\2012\10 - October\02 - Out Of Focus\1972 - Four Letter Monday\Out Of Focus - Four Letter Monday Afternoon (CD2).wav

Пиковый уровень 99.4 % Качество диапазона 100.0 % CRC копии 5B31284F Копирование... OK

Ошибок не произошло

AccurateRip: сводка

Трек 1 точное извлечение (доверие 3) [981E3C32]Трек 2 точное извлечение (доверие 3) [2458B6F5]Трек 3 точное извлечение (доверие 3) [0D86D5E6]

Все треки извлечены точно

Конец отчёта
<pre>
</pre>
<pre>
</pre>


Трекер:  [ 27-Окт-2012 13:51 ]

  

Скачать .torrent

Размер .torrent файла 18 KB


Размер: 837 MB
Хэш (hash) релиза: 25bc17736c88772fd76ec3cfe3d1140583b23d8a

Торренты, похожие на Out of Focus - Four Letter Monday Afternoon - 1972 скачать торрент

Форум Название Автор Размер S L Добавлен
Rосk | Mеtаl | Аltеrnаtivе, Рunk, Indереndеnt (losslеss) ·· (Jazz, Jazz/rock, fusion) Out of Focus - Four Letter Monday Afternoon - 1972, APE (image + .cue), lossless Galfimbul 575546696549 MB 0 0 1297859235

15:27

16-Фев-11

Еще никто не оставлял запись к записи скачать торрент Out of Focus - Four Letter Monday Afternoon - 1972 . Будь первым!

!Обратная связь