Скачать через торрент музыку Windchase - Symphinity бесплатно без регистрации torrent

Если у вас наблюдаются проблемы со скриншотами, переходом по ссылками, скачиванием торрентов - проблемы в блокировщике рекламы AdBlock. #хорошегоДня!


Статистика раздачи
Размер:  282 MB   |    Зарегистрирован:  4 года 11 месяцев   |    .torrent скачан:  11 раз   |   
Раздают:  1  
   
Загрузка...
 
Автор Сообщение

Galfimbul

avatar Galfimbul


Windchase / Symphinity (1977)

Жанр: Sympho Prog Rock
Год издания: 1992
Аудиокодек: FLAC (*.flac)
Тип рипа: image+.cue
Битрейт аудио: lossless
Продолжительность: 46:08
Источник (релизер): my disc
Наличие сканов в содержимом раздачи: да
Треклист:
01. Forward We Ride [0:01:40.62]
02. Horsemen To Symphinity [0:08:31.00]
03. Glad To Be Alive [0:08:09.45]
04. Gypsy [0:05:11.05]
05. No Scruples [0:06:29.25]
06. Lamb''s Fry [0:09:34.58]
07. Non Siamo Perfetti [0:01:59.25]
08. Flight Call [0:04:31.67]
Exact Audio Copy V0.99 prebeta 4 from 23. January 2008

Отчёт EAC об извлечении, выполненном 24. октября 2012, 3:24

Windchase / Symphinity

Дисковод: ASUS DRW-1814BL Adapter: 1 ID: 0

Режим чтения : ДостоверностьИспользование точного потока : ДаОтключение кэша аудио : ДаИспользование указателей C2 : Нет

Коррекция смещения при чтении : 6Способность читать области Lead-in и Lead-out : НетЗаполнение пропущенных сэмплов тишиной : ДаУдаление блоков с тишиной в начале и конце : НетПри вычислениях CRC использовались нулевые сэмплы : ДаИнтерфейс : Установленный внешний ASPI-интерфейс

Выходной формат : Пользовательский кодировщикВыбранный битрейт : 1024 kBit/sКачество : ВысокийДобавление ID3-тэга : НетУтилита сжатия : C:\Program Files\Exact Audio Copy\FLAC\FLAC.EXEДополнительные параметры : -6 -V -T "ARTIST=%a" -T "TITLE=%t" -T "ALBUM=%g" -T "DATE=%y" -T "TRACKNUMBER=%n" -T "GENRE=%m" -T "COMMENT=%e" %s -o %d

TOC извлечённого CD

Трек | Старт | Длительность | Начальный сектор | Конечный сектор --------------------------------------------------------------------- 1 | 0:00.37 | 1:40.62 | 37 | 7598 2 | 1:41.24 | 8:31.00 | 7599 | 45923 3 | 10:12.24 | 8:09.45 | 45924 | 82643 4 | 18:21.69 | 5:11.05 | 82644 | 105973 5 | 23:32.74 | 6:29.25 | 105974 | 135173 6 | 30:02.24 | 9:34.58 | 135174 | 178281 7 | 39:37.07 | 1:59.25 | 178282 | 187231 8 | 41:36.32 | 4:31.67 | 187232 | 207623

Характеристики диапазона извлечения и сообщения об ошибках

Выбранный диапазон

Имя файла D:\loSSleSS\windchase''77\Windchase - Symphinity.wav

Пиковый уровень 100.0 % Качество диапазона 100.0 % CRC теста E6283CDF CRC копии E6283CDF Копирование... OK

Ошибок не произошло

AccurateRip: сводка

Трек 1 точное извлечение (доверие 2) [F5A9D3EB]Трек 2 точное извлечение (доверие 2) [FDCC6D1B]Трек 3 точное извлечение (доверие 2) [3E858522]Трек 4 точное извлечение (доверие 2) [78D2335A]Трек 5 точное извлечение (доверие 2) [F9DE454D]Трек 6 точное извлечение (доверие 2) [ED03F964]Трек 7 точное извлечение (доверие 2) [DB81CFE9]Трек 8 точное извлечение (доверие 2) [D5B4FE2B]

Все треки извлечены точно

Конец отчёта
После распада группы Sebastian Hardie Mario Millo и Toivo Pilt тут же собрали новую команду с бас-гитаристом Duncan McGuire и барабанщиком Doug Bligh, которую, не долго думая, назвали Windchase...
Windchase в 1977 году выпустили прекрасный альбом "Symphinity", оказавшийся, к сожалению, единственным. Mario Millo занялся сольной карьерой: сочинял и исполнял музыку к кинофильмам, выпустил три сольных альбома.
Mario Millo — Vocals, Gibson S1, Gibson L5-S, Mandolin, Acoustic guitars, Tubular bells
Toivo Pilt — Hammond C3 L-111 Organ, Grand Piano, Mini Moog, Fender Rhodes, Mellotron, Arp 2600, Solina
Doug Bligh — Drums, Percussion (various), Backing vocals and handclaps
Duncan Mcguire — Bass guitar
Doug Nethercote — bass guitar on Glad To Be Alive and No Scruples


Трекер:  [ 27-Окт-2012 13:51 ]

  

Скачать .torrent

Размер .torrent файла 12 KB


Размер: 282 MB
Хэш (hash) релиза: 11982fc2eb0e2cd26e4009e5d4134add8a40de16

Еще никто не оставлял запись к записи скачать торрент Windchase - Symphinity . Будь первым!

!Обратная связь