Скачать через торрент музыку Zeltinger Band - Asi mit Niwoh: Das Beste aus 15 Jahren - 1993, APE бесплатно без регистрации torrent

Если у вас наблюдаются проблемы со скриншотами, переходом по ссылками, скачиванием торрентов - проблемы в блокировщике рекламы AdBlock. #хорошегоДня!


Статистика раздачи
Размер:  366 MB   |    Зарегистрирован:  5 лет   |    .torrent скачан:  7 раз   |   
Раздают:  1  
   
Загрузка...
 
Автор Сообщение

Galfimbul

avatar Galfimbul


Zeltinger Band / Asi mit Niwoh: Das Beste aus 15 Jahren

Жанр: Rock
Страна-производитель диска: Germany
Год издания: 1993
Издатель (лейбл): Chlodwig, BMG Ariola
Номер по каталогу: 74321 146602
Страна: Germany
Аудиокодек: APE (*.ape)
Тип рипа: image+.cue
Битрейт аудио: lossless
Продолжительность: 00:56;14
Источник (релизер): avax
Наличие сканов в содержимом раздачи: нет
Треклист:
01. Asi mit Niwoh
02. Mein Vater war ein Wandersmann
03. Müngersdorfer Stadion (Rockaway Beach)
04. Er war gerade 18 Jahr (Il venait d''Avoir 18 ans)
05. Sommer, Sonne, Herzinfarkt
06. Tuntensong
07. Italia
08. Mer weeden alt
09. Schöne Frauen (Pretty Woman)
10. Panzerfahrer
11. Entzug
12. Rock''n''Roll-Betrug
13. Nie Diät
14. Sozialamt
15. Knochen
16. Führ mich an den Flusslauf (Take Me To The River)
17. Kölsche Junge
Exact Audio Copy V1.0 beta 3 from 29. August 2011

EAC extraction logfile from 19. June 2012, 12:33

Zeltinger Band / Asi mit Niwoh - Das Beste aus 15 Jahren Zeltinger Band

Used drive : PIONEER BD-RW BDR-206 Adapter: 2 ID: 3

Read mode : SecureUtilize accurate stream : YesDefeat audio cache : YesMake use of C2 pointers : No

Read offset correction : 667Overread into Lead-In and Lead-Out : NoFill up missing offset samples with silence : YesDelete leading and trailing silent blocks : NoNull samples used in CRC calculations : YesUsed interface : Native Win32 interface for Win NT & 2000

Used output format : User Defined EncoderSelected bitrate : 896 kBit/sQuality : HighAdd ID3 tag : NoCommand line compressor : C:\Program Files\FLAC\flac.exeAdditional command line options : -5 -T "Artist=%artist%" -T "Title=%title%" -T "Album=%albumtitle%" -T "Date=%year%" -T "Tracknumber=%tracknr%" -T "Genre=%genre%" %source% -o %dest%

TOC of the extracted CD

Track | Start | Length | Start sector | End sector --------------------------------------------------------- 1 | 0:00.00 | 3:38.65 | 0 | 16414 2 | 3:38.65 | 1:12.47 | 16415 | 21861 3 | 4:51.37 | 3:12.35 | 21862 | 36296 4 | 8:03.72 | 3:12.43 | 36297 | 50739 5 | 11:16.40 | 3:58.70 | 50740 | 68659 6 | 15:15.35 | 2:18.60 | 68660 | 79069 7 | 17:34.20 | 4:18.30 | 79070 | 98449 8 | 21:52.50 | 3:17.12 | 98450 | 113236 9 | 25:09.62 | 2:44.55 | 113237 | 125591 10 | 27:54.42 | 4:12.08 | 125592 | 144499 11 | 32:06.50 | 3:42.22 | 144500 | 161171 12 | 35:48.72 | 4:04.73 | 161172 | 179544 13 | 39:53.70 | 4:14.27 | 179545 | 198621 14 | 44:08.22 | 4:02.48 | 198622 | 216819 15 | 48:10.70 | 2:14.52 | 216820 | 226921 16 | 50:25.47 | 4:00.38 | 226922 | 244959 17 | 54:26.10 | 1:48.17 | 244960 | 253076

Range status and errors

Selected range

Filename I:\=== VINYL RIPS ===\=== EAC===\X FRESH RIP\Zeltinger Band - Asi mit Niwoh - Das Beste aus 15 Jahren Zeltinger Band.wav

Peak level 94.4 % Extraction speed 7.2 X Range quality 100.0 % Test CRC 75ECE8E6 Copy CRC 75ECE8E6 Copy OK

No errors occurred

AccurateRip summary

Track 1 accurately ripped (confidence 2) [8311A6A6] (AR v2)Track 2 accurately ripped (confidence 2) [4D22B4D8] (AR v2)Track 3 accurately ripped (confidence 2) [D63C0B38] (AR v2)Track 4 accurately ripped (confidence 2) [5AB64A14] (AR v2)Track 5 accurately ripped (confidence 2) [3D9EE930] (AR v2)Track 6 accurately ripped (confidence 2) [AB2643B8] (AR v2)Track 7 accurately ripped (confidence 2) [8C31CF0D] (AR v2)Track 8 accurately ripped (confidence 2) [C41112C0] (AR v2)Track 9 accurately ripped (confidence 2) [37BD8EEE] (AR v2)Track 10 accurately ripped (confidence 2) [F1CE8642] (AR v2)Track 11 accurately ripped (confidence 2) [0378B353] (AR v2)Track 12 accurately ripped (confidence 2) [07A8DFA0] (AR v2)Track 13 accurately ripped (confidence 2) [9D3451C7] (AR v2)Track 14 accurately ripped (confidence 2) [5F482AB4] (AR v2)Track 15 accurately ripped (confidence 2) [D804E702] (AR v2)Track 16 accurately ripped (confidence 2) [DF0B925A] (AR v2)Track 17 accurately ripped (confidence 2) [E98E9EA0] (AR v2)

All tracks accurately ripped

End of status report

---- CUETools DB Plugin V2.1.3

[CTDB TOCID: qYbTPMhV7ZX471F3KDpebkOFxMM-] found, Submit result: qYbTPMhV7ZX471F3KDpebkOFxMM- has been confirmed[168a608b] (2/2) Accurately ripped

==== Log checksum 1FDEEAF5001204BD0833C7591C4CC0837BF5D8C6A0682EC85A063C5FA7D71986 ====
AUDIOCHECKER v2.0 beta (build 457) - by Dester - <a href="mailto:opdester@freemail.hu" class="postLink">opdester@freemail.hu</a>~~~~~~~~~~~~~~~~~~~~~~~~~~~~~~~~~~-=== DO NOT EDIT THIS FILE! ===-

Path: ...\Zeltinger Band - Asi mit Niwoh - Das Beste aus 15 Jahren {Germany 1993}

1 -=- Zeltinger Band - Asi mit Niwoh - Das Beste aus 15 Jahren Zeltinger Band.wav -=- CDDA (100%)

212716292


Трекер:  [ 27-Окт-2012 13:51 ]

  

Скачать .torrent

Размер .torrent файла 15 KB


Размер: 366 MB
Хэш (hash) релиза: 337d6e76ea90341d4c34fc798eb4add31ffdf724

Еще никто не оставлял запись к записи скачать торрент Zeltinger Band - Asi mit Niwoh: Das Beste aus 15 Jahren - 1993, APE . Будь первым!

!Обратная связь