Скачать через торрент музыку Elvis Presley -=1957=- Loving You бесплатно без регистрации torrent

Если у вас наблюдаются проблемы со скриншотами, переходом по ссылками, скачиванием торрентов - проблемы в блокировщике рекламы AdBlock. #хорошегоДня!


Статистика раздачи
Размер:  334 MB   |    Зарегистрирован:  4 года 9 месяцев   |    .torrent скачан:  16 раз   |   
Раздают:  1  
   
Загрузка...
 
Автор Сообщение

Galfimbul

avatar Galfimbul


Elvis Presley -=1957=- Loving YouOriginal & Extended Version
ОРИГИНАЛЬНАЯ ВЕРСИЯ
Жанр: Rock''n''Roll, Soundtrack
Год выпуска: 1957
Производитель диска: США
Аудио кодек: APE
Тип рипа: image+.cue+.jpg
Битрейт аудио: lossless
Продолжительность: 26:32
Наличие сканов в содержимом раздачи: нет

Треклист:
01 — Mean Woman Blues [2:18]
02 — (Let Me Be Your) Teddy Bear [1:47]
03 — Loving You [2:14]
04 — Got A Lot O'' Livin'' To Do [2:34]
05 — Lonesome Cowboy [3:02]
06 — Hot Dog [1:14]
07 — Party [1:28]
08 — Blueberry Hill [2:39]
09 — True Love [2:06]
10 — Don''t Leave Me Now [1:59]
11 — Have I Told You Lately [2:32]
12 — I Need You So [2:39]
Exact Audio Copy V0.99 prebeta 4 from 23. January 2008

Отчёт EAC об извлечении, выполненном 30. марта 2009, 21:24

Elvis Presley / Loving You

Дисковод: ASUS DRW-1612BL Adapter: 1 ID: 0

Режим чтения : ДостоверностьИспользование точного потока : ДаОтключение кэша аудио : ДаИспользование указателей C2 : Нет

Коррекция смещения при чтении : 6Способность читать области Lead-in и Lead-out : НетЗаполнение пропущенных сэмплов тишиной : ДаУдаление блоков с тишиной в начале и конце : НетПри вычислениях CRC использовались нулевые сэмплы : НетИнтерфейс : Встроенный Win32-интерфейс для Win NT/2000

Выходной формат : Monkey''s Audio Lossless Encoder v3.99 DLLФормат сэмплов : High Lossless Compression

TOC извлечённого CD

Трек | Старт | Длительность | Начальный сектор | Конечный сектор --------------------------------------------------------------------- 1 | 0:00.00 | 2:18.03 | 0 | 10352 2 | 2:18.03 | 1:46.58 | 10353 | 18360 3 | 4:04.61 | 2:14.00 | 18361 | 28410 4 | 6:18.61 | 2:33.40 | 28411 | 39925 5 | 8:52.26 | 3:02.10 | 39926 | 53585 6 | 11:54.36 | 1:14.18 | 53586 | 59153 7 | 13:08.54 | 1:27.51 | 59154 | 65729 8 | 14:36.30 | 2:39.11 | 65730 | 77665 9 | 17:15.41 | 2:06.19 | 77666 | 87134 10 | 19:21.60 | 1:59.17 | 87135 | 96076 11 | 21:21.02 | 2:32.07 | 96077 | 107483 12 | 23:53.09 | 2:38.52 | 107484 | 119385

Характеристики диапазона извлечения и сообщения об ошибках

Выбранный диапазон

Имя файла N:\Музыка на разбор\!! Extract !!\Elvis Presley-1957-Loving You.ape

Пиковый уровень 92.1 % Качество диапазона 100.0 % CRC копии 262EBABE Копирование... OK

Ошибок не произошло

Конец отчёта
РАСШИРЕННАЯ ВЕРСИЯ
Жанр: Rock''n''Roll, Soundtrack
Год выпуска: 1997
Производитель диска: США
Лейбл: RCA
Каталожный номер: 82876 66060-2
Аудио кодек: APE
Тип рипа: image+.cue
Битрейт аудио: lossless
Продолжительность: 00:41:44
Наличие сканов в содержимом раздачи: да

Трэклист:
01 - Mean Woman Blues [2:19]
02 - (Let Me Be Your) Teddy Bear [1:49]
03 - Loving You [2:15]
04 - Got A Lot O'' Livin'' To Do [2:33]
05 - Lonesome Cowboy [3:05]
06 - Hot Dog [1:16]
07 - Party [1:31]
08 - Blueberry Hill [2:41]
09 - True Love [2:07]
10 - Don''t Leave Me Now [2:00]
11 - Have I Told You Lately That I Love You [2:33]
12 - I Need You So [2:40]
13 - Tell Me Why (Bonus Track) [2:08]
14 - Is It So Strange (Bonus Track) [2:30]
15 - One Night Of Sin (Bonus Track) [2:37]
16 - When It Rains, It Really Pours (Bonus Track) [1:51]
17 - I Beg Of You (Alternate Master) (Bonus Track) [1:53]
18 - Party (Alternate Master) (Bonus Track) [1:11]
19 - Loving You (Uptempo Version) (Bonus Track) [1:27]
20 - Got A Lot O'' Livin'' To Do (Finale) (Bonus Track) [1:20]


Exact Audio Copy V0.99 prebeta 5 from 4. May 2009

Отчёт EAC об извлечении, выполненном 9. апреля 2011, 22:15

Elvis Presley / Loving You

Дисковод: ASUS DRW-24B1ST Adapter: 0 ID: 0

Режим чтения : ДостоверностьИспользование точного потока : ДаОтключение кэша аудио : ДаИспользование указателей C2 : Нет

Коррекция смещения при чтении : 6Способность читать области Lead-in и Lead-out : НетЗаполнение пропущенных сэмплов тишиной : ДаУдаление блоков с тишиной в начале и конце : НетПри вычислениях CRC использовались нулевые сэмплы : ДаИнтерфейс : Встроенный Win32-интерфейс для Win NT/2000

Выходной формат : Внутренние WAV-операцииФормат сэмплов : 44.100 Гц; 16 бит; стерео

TOC извлечённого CD

Трек | Старт | Длительность | Начальный сектор | Конечный сектор --------------------------------------------------------------------- 1 | 0:00.00 | 2:19.29 | 0 | 10453 2 | 2:19.29 | 1:48.66 | 10454 | 18619 3 | 4:08.20 | 2:15.11 | 18620 | 28755 4 | 6:23.31 | 2:32.71 | 28756 | 40226 5 | 8:56.27 | 3:05.03 | 40227 | 54104 6 | 12:01.30 | 1:15.40 | 54105 | 59769 7 | 13:16.70 | 1:30.63 | 59770 | 66582 8 | 14:47.58 | 2:40.41 | 66583 | 78623 9 | 17:28.24 | 2:07.31 | 78624 | 88179 10 | 19:35.55 | 2:00.34 | 88180 | 97213 11 | 21:36.14 | 2:32.58 | 97214 | 108671 12 | 24:08.72 | 2:39.40 | 108672 | 120636 13 | 26:48.37 | 2:08.04 | 120637 | 130240 14 | 28:56.41 | 2:29.58 | 130241 | 141473 15 | 31:26.24 | 2:36.59 | 141474 | 153232 16 | 34:03.08 | 1:50.45 | 153233 | 161527 17 | 35:53.53 | 1:52.69 | 161528 | 169996 18 | 37:46.47 | 1:10.47 | 169997 | 175293 19 | 38:57.19 | 1:27.01 | 175294 | 181819 20 | 40:24.20 | 1:20.25 | 181820 | 187844

Характеристики диапазона извлечения и сообщения об ошибках

Выбранный диапазон

Имя файла J:\Музыка на разбор\! EXTRACT !\Elvis Presley=1997=Loving You.wav

Пиковый уровень 98.5 % Качество диапазона 100.0 % CRC теста A756CF6A CRC копии A756CF6A Копирование... OK

Ошибок не произошло

AccurateRip: сводка

Трек 1 точность не определена (достоверность 10) [CC663C86], AccurateRip вернул [55DBF21E]Трек 2 точность не определена (достоверность 10) [FE2A5826], AccurateRip вернул [7D61A8EA]Трек 3 точность не определена (достоверность 10) [148678DD], AccurateRip вернул [AB08292B]Трек 4 точность не определена (достоверность 10) [0157CDFF], AccurateRip вернул [37935CC7]Трек 5 точность не определена (достоверность 10) [871B5FC4], AccurateRip вернул [75409CA0]Трек 6 точность не определена (достоверность 10) [93B40624], AccurateRip вернул [DE2066A4]Трек 7 точность не определена (достоверность 10) [B05D824C], AccurateRip вернул [84B81CE0]Трек 8 точность не определена (достоверность 10) [5A59FBDC], AccurateRip вернул [DDCFDFFC]Трек 9 точность не определена (достоверность 10) [BB04B811], AccurateRip вернул [79D56803]Трек 10 точность не определена (достоверность 10) [AB32F0F3], AccurateRip вернул [6C6EDE61]Трек 11 точность не определена (достоверность 10) [076918A2], AccurateRip вернул [B1064944]Трек 12 точность не определена (достоверность 10) [E88062AC], AccurateRip вернул [20523E88]Трек 13 точность не определена (достоверность 10) [A3B74754], AccurateRip вернул [5451C61C]Трек 14 точность не определена (достоверность 10) [A22A699F], AccurateRip вернул [ABA0BAAD]Трек 15 точность не определена (достоверность 10) [013EA911], AccurateRip вернул [7D260389]Трек 16 точность не определена (достоверность 10) [8D7CCED3], AccurateRip вернул [B984CF4F]Трек 17 точность не определена (достоверность 10) [60BF2B70], AccurateRip вернул [8A0061D8]Трек 18 точность не определена (достоверность 10) [35AC88A6], AccurateRip вернул [C01EED0E]Трек 19 точность не определена (достоверность 10) [C9213DAA], AccurateRip вернул [04F2298E]Трек 20 точность не определена (достоверность 10) [CC3076D8], AccurateRip вернул [4881A4CC]

Ни один трек не прошёл проверки на точностьВ вашей базе может быть иной вариант штамповки диска

Конец отчёта
«Loving You» (Любить тебя) — альбом американского певца Элвиса Пресли, являющийся саундтреком к одноимённому фильму. Альбом занял 1-е место в американском хит-параде. Собственно звуковыми дорожками являются первые 7 песен. Остальные песни были записаны в то же время, но в фильм не вошли (из них три — «Blueberry Hill», «Have I Told You Lately That I Love You» и «I Need You So» вышли ранее в составе мини-альбома «Just For You»). Грампластинка вышла в монофоническом звучании (хотя запись осуществлялась на двухканальной аппаратуре) и была, согласно практике того времени, продублирована двумя одноимёнными мини-альбомами, содержащими по четыре песни. Поздние версии альбома на компакт-дисках (издания 1997, 2005 гг.) включают дополнительно песни с разных синглов, записанных примерно в то же время, что и альбом. Википедия ®


Трекер:  [ 27-Окт-2012 13:51 ]

  

Скачать .torrent

Размер .torrent файла 15 KB


Размер: 334 MB
Хэш (hash) релиза: fcecc5b3a48a2cd32732f94091ccc6c54c5c74dd

Еще никто не оставлял запись к записи скачать торрент Elvis Presley -=1957=- Loving You . Будь первым!

!Обратная связь