Скачать через торрент музыку The Beach Boys - Fifty Big Ones: Greatest Hits - 2012, FLAC бесплатно без регистрации torrent

Если у вас наблюдаются проблемы со скриншотами, переходом по ссылками, скачиванием торрентов - проблемы в блокировщике рекламы AdBlock. #хорошегоДня!


Статистика раздачи
Размер:  876 MB   |    Зарегистрирован:  4 года 9 месяцев   |    .torrent скачан:  15 раз   |   
Раздают:  1  
   
Загрузка...
 
Автор Сообщение

Galfimbul

avatar Galfimbul


The Beach Boys / Fifty Big Ones: Greatest Hits

Жанр: Pop/Rock
Страна-производитель диска: USA
Год издания: 2012
Издатель (лейбл): Capitol
Страна: USA
Аудиокодек: FLAC (*.flac)
Тип рипа: tracks+.cue
Битрейт аудио: lossless
Продолжительность: 02:15:07
Источник (релизер): wrzmusic.biz
Наличие сканов в содержимом раздачи: да
Треклист:
01. California Girls [2002 Stereo Mix]
02. Do It Again [Mono]
03. Surfin’ Safari [Mono]
04. Catch a Wave
05. Little Honda
06. Surfin’ U.S.A.
07. Surfer Girl
08. Don’t Worry, Baby [2009 Stereo Mix]
09. Little Deuce Coupe
10. Shut Down [2003 Stereo Mix]
11. I Get Around [Mono]
12. The Warmth of the Sun
13. Please Let Me Wonder [2007 Stereo Mix]
14. Wendy [2007 Stereo Mix]
15. Getcha Back
16. The Little Girl I Once Knew [Mono]
17. When I Grow Up (To Be a Man) [2012 Stereo Mix]
18. It’s OK
19. Dance, Dance, Dance [2003 Stereo Mix]
20. Do You Wanna Dance? [2012 Stereo Mix]
21. Rock and Roll Music
22. Barbara Ann [2012 Stereo Mix]
23. All Summer Long [2007 Stereo Mix]
24. Help Me, Rhonda [Mono - Single Version]
25. Fun, Fun, Fun [mono]
01. Kokomo
02. You’re So Good to Me [2007 Stereo Mix]
03. Wild Honey [2012 Stereo Mix]
04. Darlin’ [2012 Stereo Mix]
05. In My Room
06. All This Is That
07. This Whole World
08. Add Some Music to Your Day
09. Cotton Fields (The Cotton Song) [Single Version - 2001 Stereo Mix]
10. I Just Wasn’t Made for These Times [1996 Stereo Mix]
11. Sail on, Sailor
12. Surf’s Up
13. Friends
14. Heroes and Villains [2012 Stereo Mix]
15. I Can Hear Music
16. Good Timin’
17. California Saga (On My Way to Sunny Californ-i-a)
18. Isn’t It Time [Single Version]
19. Kiss Me, Baby [2000 Stereo Mix]
20. That’s Why God Made the Radio
21. Forever
22. God Only Knows [1996 Stereo Mix]
23. Sloop John B [1996 Stereo Mix]
24. Wouldn’t It Be Nice [2001 Stereo Mix]
25. Good Vibrations

Exact Audio Copy V1.0 beta 3 from 29. August 2011

EAC extraction logfile from 9. October 2012, 22:33

The Beach Boys / Fifty Big Ones: Greatest Hits (Disc 1)

Used drive : HL-DT-STDVDRW GX30N Adapter: 1 ID: 0

Read mode : Secure
Utilize accurate stream : Yes
Defeat audio cache : Yes
Make use of C2 pointers : No

Read offset correction : 6
Overread into Lead-In and Lead-Out : No
Fill up missing offset samples with silence : Yes
Delete leading and trailing silent blocks : No
Null samples used in CRC calculations : Yes
Used interface : Native Win32 interface for Win NT & 2000
Gap handling : Appended to previous track

Used output format : User Defined Encoder
Selected bitrate : 128 kBit/s
Quality : High
Add ID3 tag : No
Command line compressor : C:\Program Files (x86)\Exact Audio Copy\Flac\flac.exe
Additional command line options : -V -8 -T "artist=%artist%" -T "title=%title%" -T "album=%albumtitle%" -T "date=%year%" -T "tracknumber=%tracknr2%" -T "genre=%genre%" %source%

TOC of the extracted CD

Track | Start | Length | Start sector | End sector
---------------------------------------------------------
1 | 0:00.00 | 2:46.39 | 0 | 12488
2 | 2:46.39 | 2:19.01 | 12489 | 22914
3 | 5:05.40 | 2:06.38 | 22915 | 32402
4 | 7:12.03 | 2:11.29 | 32403 | 42256
5 | 9:23.32 | 1:53.34 | 42257 | 50765
6 | 11:16.66 | 2:30.12 | 50766 | 62027
7 | 13:47.03 | 2:27.71 | 62028 | 73123
8 | 16:14.74 | 2:50.70 | 73124 | 85943
9 | 19:05.69 | 1:41.11 | 85944 | 93529
10 | 20:47.05 | 1:51.04 | 93530 | 101858
11 | 22:38.09 | 2:13.57 | 101859 | 111890
12 | 24:51.66 | 2:53.45 | 111891 | 124910
13 | 27:45.36 | 2:51.06 | 124911 | 137741
14 | 30:36.42 | 2:21.45 | 137742 | 148361
15 | 32:58.12 | 3:01.30 | 148362 | 161966
16 | 35:59.42 | 2:36.11 | 161967 | 173677
17 | 38:35.53 | 2:05.31 | 173678 | 183083
18 | 40:41.09 | 2:12.08 | 183084 | 192991
19 | 42:53.17 | 2:04.64 | 192992 | 202355
20 | 44:58.06 | 2:22.40 | 202356 | 213045
21 | 47:20.46 | 2:28.73 | 213046 | 224218
22 | 49:49.44 | 2:13.34 | 224219 | 234227
23 | 52:03.03 | 2:10.14 | 234228 | 243991
24 | 54:13.17 | 2:47.38 | 243992 | 256554
25 | 57:00.55 | 2:16.57 | 256555 | 266811

Track 1

Filename C:\Music\The Beach Boys\2012 - Fifty Big Ones- Greatest Hits (Disc 1)\01 - California Girls [2002 stereo mix].wav

Pre-gap length 0:00:02.00

Peak level 75.9 %
Extraction speed 1.8 X
Track quality 100.0 %
Test CRC 642081CD
Copy CRC 642081CD
Track not present in AccurateRip database
Copy OK

Track 2

Filename C:\Music\The Beach Boys\2012 - Fifty Big Ones- Greatest Hits (Disc 1)\02 - Do It Again [mono].wav

Peak level 99.7 %
Extraction speed 2.8 X
Track quality 100.0 %
Test CRC 9AA1944C
Copy CRC 9AA1944C
Track not present in AccurateRip database
Copy OK

Track 3

Filename C:\Music\The Beach Boys\2012 - Fifty Big Ones- Greatest Hits (Disc 1)\03 - Surfin'' Safari [mono].wav

Peak level 84.5 %
Extraction speed 2.4 X
Track quality 99.9 %
Test CRC 760AA36B
Copy CRC 760AA36B
Track not present in AccurateRip database
Copy OK

Track 4

Filename C:\Music\The Beach Boys\2012 - Fifty Big Ones- Greatest Hits (Disc 1)\04 - Catch a Wave.wav

Peak level 89.0 %
Extraction speed 3.1 X
Track quality 100.0 %
Test CRC 7B86AC60
Copy CRC 7B86AC60
Track not present in AccurateRip database
Copy OK

Track 5

Filename C:\Music\The Beach Boys\2012 - Fifty Big Ones- Greatest Hits (Disc 1)\05 - Little Honda.wav

Peak level 100.0 %
Extraction speed 3.0 X
Track quality 100.0 %
Test CRC A3466E45
Copy CRC A3466E45
Track not present in AccurateRip database
Copy OK

Track 6

Filename C:\Music\The Beach Boys\2012 - Fifty Big Ones- Greatest Hits (Disc 1)\06 - Surfin'' U.S.A..wav

Peak level 97.8 %
Extraction speed 3.5 X
Track quality 100.0 %
Test CRC 82354BE6
Copy CRC 82354BE6
Track not present in AccurateRip database
Copy OK

Track 7

Filename C:\Music\The Beach Boys\2012 - Fifty Big Ones- Greatest Hits (Disc 1)\07 - Surfer Girl.wav

Peak level 93.6 %
Extraction speed 3.5 X
Track quality 100.0 %
Test CRC 79A484B8
Copy CRC 79A484B8
Track not present in AccurateRip database
Copy OK

Track 8

Filename C:\Music\The Beach Boys\2012 - Fifty Big Ones- Greatest Hits (Disc 1)\08 - Don''t Worry, Baby [2009 stereo mix].wav

Peak level 98.2 %
Extraction speed 3.7 X
Track quality 100.0 %
Test CRC 8F46BD8D
Copy CRC 8F46BD8D
Track not present in AccurateRip database
Copy OK

Track 9

Filename C:\Music\The Beach Boys\2012 - Fifty Big Ones- Greatest Hits (Disc 1)\09 - Little Deuce Coupe.wav

Peak level 82.3 %
Extraction speed 3.4 X
Track quality 100.0 %
Test CRC 467A9B26
Copy CRC 467A9B26
Track not present in AccurateRip database
Copy OK

Track 10

Filename C:\Music\The Beach Boys\2012 - Fifty Big Ones- Greatest Hits (Disc 1)\10 - Shut Down [2003 stereo mix].wav

Peak level 99.5 %
Extraction speed 3.7 X
Track quality 100.0 %
Test CRC 37D34EEA
Copy CRC 37D34EEA
Track not present in AccurateRip database
Copy OK

Track 11

Filename C:\Music\The Beach Boys\2012 - Fifty Big Ones- Greatest Hits (Disc 1)\11 - I Get Around [mono].wav

Peak level 100.0 %
Extraction speed 3.2 X
Track quality 99.9 %
Test CRC 37E4BCBC
Copy CRC 37E4BCBC
Track not present in AccurateRip database
Copy OK

Track 12

Filename C:\Music\The Beach Boys\2012 - Fifty Big Ones- Greatest Hits (Disc 1)\12 - The Warmth of the Sun.wav

Peak level 94.1 %
Extraction speed 3.6 X
Track quality 99.9 %
Test CRC 165B7BAA
Copy CRC 165B7BAA
Track not present in AccurateRip database
Copy OK

Track 13

Filename C:\Music\The Beach Boys\2012 - Fifty Big Ones- Greatest Hits (Disc 1)\13 - Please Let Me Wonder [2007 stereo mix].wav

Peak level 96.6 %
Extraction speed 4.4 X
Track quality 100.0 %
Test CRC 4773E945
Copy CRC 4773E945
Track not present in AccurateRip database
Copy OK

Track 14

Filename C:\Music\The Beach Boys\2012 - Fifty Big Ones- Greatest Hits (Disc 1)\14 - Wendy [2007 stereo mix].wav

Peak level 89.2 %
Extraction speed 4.2 X
Track quality 100.0 %
Test CRC 47E7DBEB
Copy CRC 47E7DBEB
Track not present in AccurateRip database
Copy OK

Track 15

Filename C:\Music\The Beach Boys\2012 - Fifty Big Ones- Greatest Hits (Disc 1)\15 - Getcha Back.wav

Peak level 69.4 %
Extraction speed 4.6 X
Track quality 100.0 %
Test CRC 89D0F025
Copy CRC 89D0F025
Track not present in AccurateRip database
Copy OK

Track 16

Filename C:\Music\The Beach Boys\2012 - Fifty Big Ones- Greatest Hits (Disc 1)\16 - The Little Girl I Once Knew [mono].wav

Peak level 93.7 %
Extraction speed 4.6 X
Track quality 100.0 %
Test CRC 4BB0040C
Copy CRC 4BB0040C
Track not present in AccurateRip database
Copy OK

Track 17

Filename C:\Music\The Beach Boys\2012 - Fifty Big Ones- Greatest Hits (Disc 1)\17 - When I Grow Up (To Be a Man) [2012 stereo mix].wav

Peak level 100.0 %
Extraction speed 4.5 X
Track quality 100.0 %
Test CRC 87E6D3E7
Copy CRC 87E6D3E7
Track not present in AccurateRip database
Copy OK

Track 18

Filename C:\Music\The Beach Boys\2012 - Fifty Big Ones- Greatest Hits (Disc 1)\18 - It''s OK.wav

Peak level 65.5 %
Extraction speed 3.8 X
Track quality 99.9 %
Test CRC 54E4C500
Copy CRC 54E4C500
Track not present in AccurateRip database
Copy OK

Track 19

Filename C:\Music\The Beach Boys\2012 - Fifty Big Ones- Greatest Hits (Disc 1)\19 - Dance, Dance, Dance [2003 stereo mix].wav

Peak level 80.0 %
Extraction speed 3.8 X
Track quality 99.9 %
Test CRC 2B92C87B
Copy CRC 2B92C87B
Track not present in AccurateRip database
Copy OK

Track 20

Filename C:\Music\The Beach Boys\2012 - Fifty Big Ones- Greatest Hits (Disc 1)\20 - Do You Wanna Dance [2012 stereo mix].wav

Peak level 100.0 %
Extraction speed 4.8 X
Track quality 100.0 %
Test CRC 44A91DA4
Copy CRC 44A91DA4
Track not present in AccurateRip database
Copy OK

Track 21

Filename C:\Music\The Beach Boys\2012 - Fifty Big Ones- Greatest Hits (Disc 1)\21 - Rock and Roll Music.wav

Peak level 84.8 %
Extraction speed 4.9 X
Track quality 100.0 %
Test CRC 75ED22B7
Copy CRC 75ED22B7
Track not present in AccurateRip database
Copy OK

Track 22

Filename C:\Music\The Beach Boys\2012 - Fifty Big Ones- Greatest Hits (Disc 1)\22 - Barbara Ann [2012 stereo mix].wav

Peak level 83.1 %
Extraction speed 4.0 X
Track quality 99.9 %
Test CRC 1D5436DB
Copy CRC 1D5436DB
Track not present in AccurateRip database
Copy OK

Track 23

Filename C:\Music\The Beach Boys\2012 - Fifty Big Ones- Greatest Hits (Disc 1)\23 - All Summer Long [2007 stereo mix].wav

Peak level 86.3 %
Extraction speed 5.0 X
Track quality 100.0 %
Test CRC 99132980
Copy CRC 99132980
Track not present in AccurateRip database
Copy OK

Track 24

Filename C:\Music\The Beach Boys\2012 - Fifty Big Ones- Greatest Hits (Disc 1)\24 - Help Me, Rhonda [mono - single version].wav

Peak level 88.3 %
Extraction speed 5.3 X
Track quality 100.0 %
Test CRC 1972CABC
Copy CRC 1972CABC
Track not present in AccurateRip database
Copy OK

Track 25

Filename C:\Music\The Beach Boys\2012 - Fifty Big Ones- Greatest Hits (Disc 1)\25 - Fun, Fun, Fun [mono].wav

Peak level 100.0 %
Extraction speed 4.3 X
Track quality 99.9 %
Test CRC 0892277A
Copy CRC 0892277A
Track not present in AccurateRip database
Copy OK

None of the tracks are present in the AccurateRip database

No errors occurred

End of status report

==== Log checksum 8B1C84F96ECF0D3E75EB6117B053B60BA5D64B9281437EBDC10DEB260A7EA7FA ====
Exact Audio Copy V1.0 beta 3 from 29. August 2011

EAC extraction logfile from 9. October 2012, 23:38

The Beach Boys / Fifty Big Ones: Greatest Hits (Disc 2)

Used drive : HL-DT-STDVDRW GX30N Adapter: 1 ID: 0

Read mode : Secure
Utilize accurate stream : Yes
Defeat audio cache : Yes
Make use of C2 pointers : No

Read offset correction : 6
Overread into Lead-In and Lead-Out : No
Fill up missing offset samples with silence : Yes
Delete leading and trailing silent blocks : No
Null samples used in CRC calculations : Yes
Used interface : Native Win32 interface for Win NT & 2000
Gap handling : Appended to previous track

Used output format : User Defined Encoder
Selected bitrate : 128 kBit/s
Quality : High
Add ID3 tag : No
Command line compressor : C:\Program Files (x86)\Exact Audio Copy\Flac\flac.exe
Additional command line options : -V -8 -T "artist=%artist%" -T "title=%title%" -T "album=%albumtitle%" -T "date=%year%" -T "tracknumber=%tracknr2%" -T "genre=%genre%" %source%

TOC of the extracted CD

Track | Start | Length | Start sector | End sector
---------------------------------------------------------
1 | 0:00.00 | 3:37.07 | 0 | 16281
2 | 3:37.07 | 2:15.55 | 16282 | 26461
3 | 5:52.62 | 2:38.35 | 26462 | 38346
4 | 8:31.22 | 2:12.17 | 38347 | 48263
5 | 10:43.39 | 2:13.64 | 48264 | 58302
6 | 12:57.28 | 3:59.17 | 58303 | 76244
7 | 16:56.45 | 1:57.71 | 76245 | 85090
8 | 18:54.41 | 3:33.61 | 85091 | 101126
9 | 22:28.27 | 3:15.61 | 101127 | 115812
10 | 25:44.13 | 3:22.45 | 115813 | 131007
11 | 29:06.58 | 3:18.18 | 131008 | 145875
12 | 32:25.01 | 4:14.30 | 145876 | 164955
13 | 36:39.31 | 2:33.17 | 164956 | 176447
14 | 39:12.48 | 3:39.11 | 176448 | 192883
15 | 42:51.59 | 2:37.18 | 192884 | 204676
16 | 45:29.02 | 2:13.33 | 204677 | 214684
17 | 47:42.35 | 3:23.29 | 214685 | 229938
18 | 51:05.64 | 3:47.42 | 229939 | 247005
19 | 54:53.31 | 2:44.05 | 247006 | 259310
20 | 57:37.36 | 3:19.21 | 259311 | 274256
21 | 60:56.57 | 2:41.53 | 274257 | 286384
22 | 63:38.35 | 2:55.59 | 286385 | 299568
23 | 66:34.19 | 3:03.16 | 299569 | 313309
24 | 69:37.35 | 2:33.43 | 313310 | 324827
25 | 72:11.03 | 3:37.30 | 324828 | 341132

Track 1

Filename C:\Music\The Beach Boys\2012 - Fifty Big Ones- Greatest Hits (Disc 2)\01 - Kokomo.wav

Pre-gap length 0:00:02.00

Peak level 82.1 %
Extraction speed 1.7 X
Track quality 99.9 %
Test CRC 9D4D0CE5
Copy CRC 9D4D0CE5
Track not present in AccurateRip database
Copy OK

Track 2

Filename C:\Music\The Beach Boys\2012 - Fifty Big Ones- Greatest Hits (Disc 2)\02 - You''re So Good to Me [2007 stereo mix].wav

Peak level 88.0 %
Extraction speed 2.8 X
Track quality 100.0 %
Test CRC 3620D6A6
Copy CRC 3620D6A6
Track not present in AccurateRip database
Copy OK

Track 3

Filename C:\Music\The Beach Boys\2012 - Fifty Big Ones- Greatest Hits (Disc 2)\03 - Wild Honey [2012 stereo mix].wav

Peak level 95.1 %
Extraction speed 3.2 X
Track quality 100.0 %
Test CRC 1823EC4A
Copy CRC 1823EC4A
Track not present in AccurateRip database
Copy OK

Track 4

Filename C:\Music\The Beach Boys\2012 - Fifty Big Ones- Greatest Hits (Disc 2)\04 - Darlin'' [2012 stereo mix].wav

Peak level 100.0 %
Extraction speed 3.2 X
Track quality 100.0 %
Test CRC 53C81654
Copy CRC 53C81654
Track not present in AccurateRip database
Copy OK

Track 5

Filename C:\Music\The Beach Boys\2012 - Fifty Big Ones- Greatest Hits (Disc 2)\05 - In My Room.wav

Peak level 97.9 %
Extraction speed 3.3 X
Track quality 100.0 %
Test CRC 07C408E6
Copy CRC 07C408E6
Track not present in AccurateRip database
Copy OK

Track 6

Filename C:\Music\The Beach Boys\2012 - Fifty Big Ones- Greatest Hits (Disc 2)\06 - All This Is That.wav

Peak level 100.0 %
Extraction speed 3.8 X
Track quality 100.0 %
Test CRC E38AC3AD
Copy CRC E38AC3AD
Track not present in AccurateRip database
Copy OK

Track 7

Filename C:\Music\The Beach Boys\2012 - Fifty Big Ones- Greatest Hits (Disc 2)\07 - This Whole World.wav

Peak level 100.0 %
Extraction speed 3.5 X
Track quality 100.0 %
Test CRC 26CF85BC
Copy CRC 26CF85BC
Track not present in AccurateRip database
Copy OK

Track 8

Filename C:\Music\The Beach Boys\2012 - Fifty Big Ones- Greatest Hits (Disc 2)\08 - Add Some Music to Your Day.wav

Peak level 100.0 %
Extraction speed 3.5 X
Track quality 99.9 %
Test CRC CC5D958D
Copy CRC CC5D958D
Track not present in AccurateRip database
Copy OK

Track 9

Filename C:\Music\The Beach Boys\2012 - Fifty Big Ones- Greatest Hits (Disc 2)\09 - Cotton Fields (The Cotton Song) [single version - 2001 stereo mix].wav

Peak level 95.4 %
Extraction speed 4.1 X
Track quality 100.0 %
Test CRC CA7881E5
Copy CRC CA7881E5
Track not present in AccurateRip database
Copy OK

Track 10

Filename C:\Music\The Beach Boys\2012 - Fifty Big Ones- Greatest Hits (Disc 2)\10 - I Just Wasn''t Made for These Times [1996 stereo mix].wav

Peak level 100.0 %
Extraction speed 4.4 X
Track quality 100.0 %
Test CRC 9618B296
Copy CRC 9618B296
Track not present in AccurateRip database
Copy OK

Track 11

Filename C:\Music\The Beach Boys\2012 - Fifty Big Ones- Greatest Hits (Disc 2)\11 - Sail On, Sailor.wav

Peak level 100.0 %
Extraction speed 4.5 X
Track quality 100.0 %
Test CRC 453D3C75
Copy CRC 453D3C75
Track not present in AccurateRip database
Copy OK

Track 12

Filename C:\Music\The Beach Boys\2012 - Fifty Big Ones- Greatest Hits (Disc 2)\12 - Surf''s Up.wav

Peak level 92.8 %
Extraction speed 4.9 X
Track quality 100.0 %
Test CRC 13EFEA33
Copy CRC 13EFEA33
Track not present in AccurateRip database
Copy OK

Track 13

Filename C:\Music\The Beach Boys\2012 - Fifty Big Ones- Greatest Hits (Disc 2)\13 - Friends.wav

Peak level 100.0 %
Extraction speed 4.3 X
Track quality 100.0 %
Test CRC 9791E72D
Copy CRC 9791E72D
Track not present in AccurateRip database
Copy OK

Track 14

Filename C:\Music\The Beach Boys\2012 - Fifty Big Ones- Greatest Hits (Disc 2)\14 - Heroes and Villains [2012 stereo mix].wav

Peak level 100.0 %
Extraction speed 5.1 X
Track quality 100.0 %
Test CRC 9F42D977
Copy CRC 9F42D977
Track not present in AccurateRip database
Copy OK

Track 15

Filename C:\Music\The Beach Boys\2012 - Fifty Big Ones- Greatest Hits (Disc 2)\15 - I Can Hear Music.wav

Peak level 87.5 %
Extraction speed 4.8 X
Track quality 100.0 %
Test CRC 6930BB79
Copy CRC 6930BB79
Track not present in AccurateRip database
Copy OK

Track 16

Filename C:\Music\The Beach Boys\2012 - Fifty Big Ones- Greatest Hits (Disc 2)\16 - Good Timin''.wav

Peak level 100.0 %
Extraction speed 3.9 X
Track quality 99.9 %
Test CRC 5C1537AA
Copy CRC 5C1537AA
Track not present in AccurateRip database
Copy OK

Track 17

Filename C:\Music\The Beach Boys\2012 - Fifty Big Ones- Greatest Hits (Disc 2)\17 - California Saga (On My Way to Sunny Californ-i-a).wav

Peak level 75.1 %
Extraction speed 5.2 X
Track quality 100.0 %
Test CRC A0BA120A
Copy CRC A0BA120A
Track not present in AccurateRip database
Copy OK

Track 18

Filename C:\Music\The Beach Boys\2012 - Fifty Big Ones- Greatest Hits (Disc 2)\18 - Isn''t It Time [single version].wav

Peak level 99.4 %
Extraction speed 5.6 X
Track quality 100.0 %
Test CRC 96474EE2
Copy CRC 96474EE2
Track not present in AccurateRip database
Copy OK

Track 19

Filename C:\Music\The Beach Boys\2012 - Fifty Big Ones- Greatest Hits (Disc 2)\19 - Kiss Me, Baby [2000 stereo mix].wav

Peak level 80.4 %
Extraction speed 5.4 X
Track quality 100.0 %
Test CRC EBAEB317
Copy CRC EBAEB317
Track not present in AccurateRip database
Copy OK

Track 20

Filename C:\Music\The Beach Boys\2012 - Fifty Big Ones- Greatest Hits (Disc 2)\20 - That''s Why God Made the Radio.wav

Peak level 91.7 %
Extraction speed 5.7 X
Track quality 100.0 %
Test CRC 6AC1764E
Copy CRC 6AC1764E
Track not present in AccurateRip database
Copy OK

Track 21

Filename C:\Music\The Beach Boys\2012 - Fifty Big Ones- Greatest Hits (Disc 2)\21 - Forever.wav

Peak level 88.7 %
Extraction speed 5.5 X
Track quality 100.0 %
Test CRC 209672D8
Copy CRC 209672D8
Track not present in AccurateRip database
Copy OK

Track 22

Filename C:\Music\The Beach Boys\2012 - Fifty Big Ones- Greatest Hits (Disc 2)\22 - God Only Knows [1996 stereo mix].wav

Peak level 80.7 %
Extraction speed 5.7 X
Track quality 100.0 %
Test CRC 2462C2CF
Copy CRC 2462C2CF
Track not present in AccurateRip database
Copy OK

Track 23

Filename C:\Music\The Beach Boys\2012 - Fifty Big Ones- Greatest Hits (Disc 2)\23 - Sloop John B [1996 stereo mix].wav

Peak level 80.8 %
Extraction speed 5.8 X
Track quality 100.0 %
Test CRC BEA9C3FF
Copy CRC BEA9C3FF
Track not present in AccurateRip database
Copy OK

Track 24

Filename C:\Music\The Beach Boys\2012 - Fifty Big Ones- Greatest Hits (Disc 2)\24 - Wouldn''t It Be Nice [2001 stereo mix].wav

Peak level 80.7 %
Extraction speed 5.6 X
Track quality 100.0 %
Test CRC 6D89C7B2
Copy CRC 6D89C7B2
Track not present in AccurateRip database
Copy OK

Track 25

Filename C:\Music\The Beach Boys\2012 - Fifty Big Ones- Greatest Hits (Disc 2)\25 - Good Vibrations [mono].wav

Peak level 90.5 %
Extraction speed 6.2 X
Track quality 100.0 %
Test CRC 09F6C374
Copy CRC 09F6C374
Track not present in AccurateRip database
Copy OK

None of the tracks are present in the AccurateRip database

No errors occurred

End of status report

==== Log checksum B69758C03CC5295E09CA4734323A04BB9824A047BFCA00C39D83A6422C1FF022 ====
-----------------------

DON''T MODIFY THIS FILE

-----------------------

PERFORMER: auCDtect Task Manager, ver. 1.5.1RC6 build 1.5.1.7
Copyright (c) 2008-2010 y-soft. All rights reserved
http://y-soft.org

ANALYZER: auCDtect: CD records authenticity detector, version 0.8.2
Copyright (c) 2004 Oleg Berngardt. All rights reserved.
Copyright (c) 2004 Alexander Djourik. All rights reserved.

FILE: 25 - Fun, Fun, Fun [mono].flac
  Size: 13773939 Hash: E358628C4FC416C6D066642308338BBC Accuracy: -m0
  Conclusion: CDDA 100%
  Signature: 598AEAECA3A82046AFD579C55928E74C987865F2
FILE: 24 - Help Me, Rhonda [mono - single version].flac
  Size: 19714366 Hash: 8A23351C93F90F892D6D1C2285AFB2DC Accuracy: -m0
  Conclusion: CDDA 100%
  Signature: A8A3780EE154A40F1ACF9B784A23950D4E5567A0
FILE: 23 - All Summer Long [2007 stereo mix].flac
  Size: 13251408 Hash: F333AA19FB207EB18BBC4C16A1E503B9 Accuracy: -m0
  Conclusion: CDDA 100%
  Signature: 4CF95B0A2EEDB198A583654F9D408E18C1C038B4
FILE: 22 - Barbara Ann [2012 stereo mix].flac
  Size: 14319858 Hash: 2A297C55DC9D2765059E4207BD7F53C3 Accuracy: -m0
  Conclusion: CDDA 100%
  Signature: 81F11CB86FC0ECE3271B7E88F224C8317240C4B7
FILE: 21 - Rock and Roll Music.flac
  Size: 17125935 Hash: 35E09BD7A0C02CB1B662FD5AF706E4A7 Accuracy: -m0
  Conclusion: CDDA 99%
  Signature: F7228B883ECD3E35E9616F5998F414F6577BC70C
FILE: 20 - Do You Wanna Dance [2012 stereo mix].flac
  Size: 15585278 Hash: D786E870D295302FEB7E8E3718CACF27 Accuracy: -m0
  Conclusion: CDDA 100%
  Signature: CCFDEE7E128FAC6E4278AD246E11CB270C65F6AC
FILE: 19 - Dance, Dance, Dance [2003 stereo mix].flac
  Size: 15105950 Hash: F1893E00BB4B799B8C4BEB82195D5462 Accuracy: -m0
  Conclusion: CDDA 100%
  Signature: 355885563CB44F793172FB3C1507B1EE979655B7
FILE: 18 - It''s OK.flac
  Size: 15233307 Hash: 75BF89629938EE90591A806654964A84 Accuracy: -m0
  Conclusion: CDDA 99%
  Signature: 093C5D5D00A5B06E739262F7BF19910C891BA48B
FILE: 17 - When I Grow Up (To Be a Man) [2012 stereo mix].flac
  Size: 13445363 Hash: EE9E2C624F49E9A197AAB9C7A7604181 Accuracy: -m0
  Conclusion: CDDA 100%
  Signature: 6FF81739385F91F8CB3B516CD0A1C4B8700F9FA1
FILE: 16 - The Little Girl I Once Knew [mono].flac
  Size: 14759291 Hash: 28D603ED99A6D767B468743C83447AD7 Accuracy: -m0
  Conclusion: CDDA 100%
  Signature: 51DF8F61D5A791A6D30BFFB29B519055E45D380F
FILE: 15 - Getcha Back.flac
  Size: 21854896 Hash: 9371DA0D095262D11EACD0B1D003E3C3 Accuracy: -m0
  Conclusion: CDDA 100%
  Signature: AFD086DC9B6F1CF42CDB31B899461B2DDD755C95
FILE: 14 - Wendy [2007 stereo mix].flac
  Size: 15553328 Hash: 182A87CE778634520BA9AFA42811499D Accuracy: -m0
  Conclusion: CDDA 99%
  Signature: 04834F81E5D393E997D948B08F1D6445369B854E
FILE: 13 - Please Let Me Wonder [2007 stereo mix].flac
  Size: 17951176 Hash: 59566277FE96355CFAA331F67CBB20A9 Accuracy: -m0
  Conclusion: CDDA 100%
  Signature: D07B3E9451435781F081D8C695ED8D6F6AB8D21C
FILE: 12 - The Warmth of the Sun.flac
  Size: 21615055 Hash: ECD82CC14180A09E4DEBDFBD840E1FC9 Accuracy: -m0
  Conclusion: CDDA 100%
  Signature: 7AF22ADFE6B96A27AF8CDBCACAE73CDCE3BF5C2E
FILE: 11 - I Get Around [mono].flac
  Size: 13371128 Hash: D458727FB38B6E4731ED2235EAF0A595 Accuracy: -m0
  Conclusion: CDDA 100%
  Signature: 6EE7DC9F76DCCEE3C9A1CAD4181331814540CFA1
FILE: 10 - Shut Down [2003 stereo mix].flac
  Size: 12785482 Hash: 3904C38B68085679BCE0C7B497F0BD4A Accuracy: -m0
  Conclusion: CDDA 100%
  Signature: D17D39F92936942C8C56DA987487AC2B742B3439
FILE: 09 - Little Deuce Coupe.flac
  Size: 11796049 Hash: ECF56AA2E85B5DF8014A4D5DB1576092 Accuracy: -m0
  Conclusion: CDDA 100%
  Signature: 8A5E1A8772620A3E85C5D6D86CED4D446DE85459
FILE: 08 - Don''t Worry, Baby [2009 stereo mix].flac
  Size: 20034304 Hash: 56D06C3211A698236D110FE425B03946 Accuracy: -m0
  Conclusion: CDDA 100%
  Signature: 3D397C93849A9EBAFA5FA601003D65FE8269ADB0
FILE: 07 - Surfer Girl.flac
  Size: 17179639 Hash: D55868054DEC4066E01740CE943C8AE6 Accuracy: -m0
  Conclusion: CDDA 99%
  Signature: 42F8BB3E7FA5BECCC940B7C38EF31C547C5DE11B
FILE: 06 - Surfin'' U.S.A..flac
  Size: 17954896 Hash: 05C70A8B13F8F7FFA160D2CAABA19F2F Accuracy: -m0
  Conclusion: CDDA 100%
  Signature: 16434114E10C840D56D19D5334341CA7952D398E
FILE: 05 - Little Honda.flac
  Size: 13043760 Hash: D618FC40C44025F83DEB49A5B6E34D7D Accuracy: -m0
  Conclusion: CDDA 100%
  Signature: 887F4DF97A52F80E574144637EA48D36F7FCE92A
FILE: 04 - Catch a Wave.flac
  Size: 14880844 Hash: 6AE11888ABBEBE8032AE25BE5339E285 Accuracy: -m0
  Conclusion: CDDA 100%
  Signature: 278DEB5E817D0C96D0FC12D75AB25E4F3AF42B0C
FILE: 03 - Surfin'' Safari [mono].flac
  Size: 14406454 Hash: 7EC075B2A469E8CB06C91A71A3509498 Accuracy: -m0
  Conclusion: CDDA 100%
  Signature: 7BA716056052E72FA40CFD1081C080C28D51BE95
FILE: 02 - Do It Again [mono].flac
  Size: 12602189 Hash: A99CFD6E42335FEDCF3FE28668EB4582 Accuracy: -m0
  Conclusion: CDDA 100%
  Signature: 95C0B574D4BD2A70AE63F993EFFC4FF7EB7426C6
FILE: 01 - California Girls [2002 stereo mix].flac
  Size: 19309428 Hash: BEB8646F5E5BD8DA19ABD3A501265A43 Accuracy: -m0
  Conclusion: CDDA 99%
  Signature: 3F1283551E26EC9801E4FC846E4C82367BD24912
-----------------------

DON''T MODIFY THIS FILE

-----------------------

PERFORMER: auCDtect Task Manager, ver. 1.5.1RC6 build 1.5.1.7
Copyright (c) 2008-2010 y-soft. All rights reserved
http://y-soft.org

ANALYZER: auCDtect: CD records authenticity detector, version 0.8.2
Copyright (c) 2004 Oleg Berngardt. All rights reserved.
Copyright (c) 2004 Alexander Djourik. All rights reserved.

FILE: 25 - Good Vibrations [mono].flac
  Size: 14291975 Hash: AEB4D44C7299E2675E70EB19C0EE3CA7 Accuracy: -m0
  Conclusion: CDDA 100%
  Signature: 502EC7B9EB935A94756EF04FE6F56F34BCF9F836
FILE: 24 - Wouldn''t It Be Nice [2001 stereo mix].flac
  Size: 17220325 Hash: D8DC489315F1E2553CDB20FD421B23C2 Accuracy: -m0
  Conclusion: CDDA 100%
  Signature: 8EF5E1778536F7F2DD65BA73912F237B8FF91066
FILE: 23 - Sloop John B [1996 stereo mix].flac
  Size: 20074394 Hash: 8FAD778FC7117CC4544A17738C7E977C Accuracy: -m0
  Conclusion: CDDA 99%
  Signature: 6122C07A4A35095FD14EE782D11A03BAF45AC5E5
FILE: 22 - God Only Knows [1996 stereo mix].flac
  Size: 18664360 Hash: 98205EE32EE5F1F2DD009743184C28A0 Accuracy: -m0
  Conclusion: CDDA 99%
  Signature: 04EE9F5AD893A9FA347EBC35BBDF6B5E3970683D
FILE: 21 - Forever.flac
  Size: 18222645 Hash: 336C7F73F2F5CAFDC67C888871A3DB55 Accuracy: -m0
  Conclusion: CDDA 100%
  Signature: F59C87147C65589F7259978DBF3C500BA2D3760B
FILE: 20 - That''s Why God Made the Radio.flac
  Size: 21750630 Hash: 5992552CCDE3F947A4F92B4F90A5FA15 Accuracy: -m0
  Conclusion: CDDA 99%
  Signature: 8964BA2F4B41C185110E4524D8E44706859B6DC5
FILE: 19 - Kiss Me, Baby [2000 stereo mix].flac
  Size: 18020692 Hash: 12F08F940E677E59C9129438BAA2D370 Accuracy: -m0
  Conclusion: CDDA 100%
  Signature: 024B4E2973EF14397F19041E126DB470E2BF3928
FILE: 18 - Isn''t It Time [single version].flac
  Size: 24017831 Hash: C6A30BF260498915539C1E4AACD05299 Accuracy: -m0
  Conclusion: CDDA 100%
  Signature: D34DC59A35AA2977375AA52BE78A110E937DC03C
FILE: 17 - California Saga (On My Way to Sunny Californ-i-a).flac
  Size: 25833202 Hash: A2D1BD361E7DD0D6ECFB56C142E7670B Accuracy: -m0
  Conclusion: CDDA 100%
  Signature: B30B49E3C19BF28E39E80EC1C77FC8AB88F92672
FILE: 16 - Good Timin''.flac
  Size: 15658619 Hash: E1212C963E41A83711A32E23DA7CD8A1 Accuracy: -m0
  Conclusion: CDDA 100%
  Signature: 11924F0D50B7E7FDB57872BD81766C4D7F38235F
FILE: 15 - I Can Hear Music.flac
  Size: 19235133 Hash: 8B1185271644216F8746477D7C06C047 Accuracy: -m0
  Conclusion: CDDA 100%
  Signature: 0033A05882377CEC13C2D4908253A29D49A9B7EB
FILE: 14 - Heroes and Villains [2012 stereo mix].flac
  Size: 24457683 Hash: 2FC4097D2C6B89F7CC26BB5AF4B00E9B Accuracy: -m0
  Conclusion: CDDA 99%
  Signature: 9C9785644FB102A54B8774B103C0C674C8C5BC53
FILE: 13 - Friends.flac
  Size: 17936853 Hash: 7731F02451B8A83485E174DDB8E57346 Accuracy: -m0
  Conclusion: CDDA 100%
  Signature: E476A50B07D9E6ECC75C29C3F307A5018450D12D
FILE: 12 - Surf''s Up.flac
  Size: 25852333 Hash: C53DCD22C6E93AE5AE77795C1558E349 Accuracy: -m0
  Conclusion: CDDA 100%
  Signature: 6548922724C12610E880B08DB46C1EE239553319
FILE: 11 - Sail On, Sailor.flac
  Size: 24350049 Hash: 987D3D6D88B6983188C4D8BE4EF83EF1 Accuracy: -m0
  Conclusion: CDDA 100%
  Signature: 36310100EE439A931BE510CAC356D67A4BBA6DF9
FILE: 10 - I Just Wasn''t Made for These Times [1996 stereo mix].flac
  Size: 21767779 Hash: 09B916D9EF872CAC8C56E2263677713C Accuracy: -m0
  Conclusion: CDDA 100%
  Signature: C5D1F901E2D1FE0F3F5712D9769D0A1FCB6D3CB9
FILE: 09 - Cotton Fields (The Cotton Song) [single version - 2001 stereo mix].flac
  Size: 24978770 Hash: 6352EC22E0115AF4D878E899D5C712CD Accuracy: -m0
  Conclusion: CDDA 99%
  Signature: 2CEE68F038B6002A5432DF03053EF0AEDCF57D89
FILE: 08 - Add Some Music to Your Day.flac
  Size: 27807079 Hash: C6CDCF5123BF8048D279860064EA9521 Accuracy: -m0
  Conclusion: CDDA 100%
  Signature: 22DC508B4CD4A2D5EE35D11C4D177E878ACAF063
FILE: 07 - This Whole World.flac
  Size: 14828289 Hash: A19249BD7868BE5D30222AED5100BCEC Accuracy: -m0
  Conclusion: CDDA 100%
  Signature: DCA89CA5DE2E5872F634F0790C68918C05BFE40F
FILE: 06 - All This Is That.flac
  Size: 25144041 Hash: 172D048AA44EA315A0B60019EBE4F026 Accuracy: -m0
  Conclusion: CDDA 100%
  Signature: B577764571DFF8D37B50C18332D40F10F34BE50C
FILE: 05 - In My Room.flac
  Size: 15384990 Hash: E247F300EFE8B9C157559280415645D5 Accuracy: -m0
  Conclusion: CDDA 100%
  Signature: 93EADF504E1DA75229C25C7B62A94D1E6230EA8D
FILE: 04 - Darlin'' [2012 stereo mix].flac
  Size: 15853071 Hash: 16FF5DFC6D404C18DEEF11C7164156AE Accuracy: -m0
  Conclusion: CDDA 100%
  Signature: 5609AA960D5A4087462275F9FC08D25BFA43E58D
FILE: 03 - Wild Honey [2012 stereo mix].flac
  Size: 17373716 Hash: 6368030A6C93596353C60CC4850D7D2B Accuracy: -m0
  Conclusion: CDDA 99%
  Signature: 76DCD1BD1214B88D15A662E059469E3E0AB6EEC1
FILE: 02 - You''re So Good to Me [2007 stereo mix].flac
  Size: 14350508 Hash: D267E7526A3913E8D0F32C16E6DCAA3B Accuracy: -m0
  Conclusion: CDDA 100%
  Signature: 10C6F4DAA3E858DB7A73804D933F67D55D43EF45
FILE: 01 - Kokomo.flac
  Size: 28065874 Hash: 24D74AC942D1A6B4B03F5F47095C52DB Accuracy: -m0
  Conclusion: CDDA 100%
  Signature: 5DEDD71BF42D4849EB56A17D26EA1F95420F3956
REM GENRE Rock
REM DATE 2012
REM DISCID 710DE519
REM COMMENT "ExactAudioCopy v1.0b3"
PERFORMER "The Beach Boys"
TITLE "Fifty Big Ones: Greatest Hits (Disc 1)"
FILE "01 - California Girls [2002 stereo mix].wav" WAVE
TRACK 01 AUDIO
TITLE "California Girls [2002 stereo mix]"
PERFORMER "The Beach Boys"
INDEX 01 00:00:00
FILE "02 - Do It Again [mono].wav" WAVE
TRACK 02 AUDIO
TITLE "Do It Again [mono]"
PERFORMER "The Beach Boys"
INDEX 01 00:00:00
FILE "03 - Surfin'' Safari [mono].wav" WAVE
TRACK 03 AUDIO
TITLE "Surfin'' Safari [mono]"
PERFORMER "The Beach Boys"
INDEX 01 00:00:00
FILE "04 - Catch a Wave.wav" WAVE
TRACK 04 AUDIO
TITLE "Catch a Wave"
PERFORMER "The Beach Boys"
INDEX 01 00:00:00
FILE "05 - Little Honda.wav" WAVE
TRACK 05 AUDIO
TITLE "Little Honda"
PERFORMER "The Beach Boys"
INDEX 01 00:00:00
FILE "06 - Surfin'' U.S.A..wav" WAVE
TRACK 06 AUDIO
TITLE "Surfin'' U.S.A."
PERFORMER "The Beach Boys"
INDEX 01 00:00:00
FILE "07 - Surfer Girl.wav" WAVE
TRACK 07 AUDIO
TITLE "Surfer Girl"
PERFORMER "The Beach Boys"
INDEX 01 00:00:00
FILE "08 - Don''t Worry, Baby [2009 stereo mix].wav" WAVE
TRACK 08 AUDIO
TITLE "Don''t Worry, Baby [2009 stereo mix]"
PERFORMER "The Beach Boys"
INDEX 01 00:00:00
FILE "09 - Little Deuce Coupe.wav" WAVE
TRACK 09 AUDIO
TITLE "Little Deuce Coupe"
PERFORMER "The Beach Boys"
INDEX 01 00:00:00
FILE "10 - Shut Down [2003 stereo mix].wav" WAVE
TRACK 10 AUDIO
TITLE "Shut Down [2003 stereo mix]"
PERFORMER "The Beach Boys"
INDEX 01 00:00:00
FILE "11 - I Get Around [mono].wav" WAVE
TRACK 11 AUDIO
TITLE "I Get Around [mono]"
PERFORMER "The Beach Boys"
INDEX 01 00:00:00
FILE "12 - The Warmth of the Sun.wav" WAVE
TRACK 12 AUDIO
TITLE "The Warmth of the Sun"
PERFORMER "The Beach Boys"
INDEX 01 00:00:00
FILE "13 - Please Let Me Wonder [2007 stereo mix].wav" WAVE
TRACK 13 AUDIO
TITLE "Please Let Me Wonder [2007 stereo mix]"
PERFORMER "The Beach Boys"
INDEX 01 00:00:00
FILE "14 - Wendy [2007 stereo mix].wav" WAVE
TRACK 14 AUDIO
TITLE "Wendy [2007 stereo mix]"
PERFORMER "The Beach Boys"
INDEX 01 00:00:00
FILE "15 - Getcha Back.wav" WAVE
TRACK 15 AUDIO
TITLE "Getcha Back"
PERFORMER "The Beach Boys"
INDEX 01 00:00:00
FILE "16 - The Little Girl I Once Knew [mono].wav" WAVE
TRACK 16 AUDIO
TITLE "The Little Girl I Once Knew [mono]"
PERFORMER "The Beach Boys"
INDEX 01 00:00:00
FILE "17 - When I Grow Up (To Be a Man) [2012 stereo mix].wav" WAVE
TRACK 17 AUDIO
TITLE "When I Grow Up (To Be a Man) [2012 stereo mix]"
PERFORMER "The Beach Boys"
INDEX 01 00:00:00
FILE "18 - It''s OK.wav" WAVE
TRACK 18 AUDIO
TITLE "It''s OK"
PERFORMER "The Beach Boys"
INDEX 01 00:00:00
FILE "19 - Dance, Dance, Dance [2003 stereo mix].wav" WAVE
TRACK 19 AUDIO
TITLE "Dance, Dance, Dance [2003 stereo mix]"
PERFORMER "The Beach Boys"
INDEX 01 00:00:00
FILE "20 - Do You Wanna Dance [2012 stereo mix].wav" WAVE
TRACK 20 AUDIO
TITLE "Do You Wanna Dance? [2012 stereo mix]"
PERFORMER "The Beach Boys"
INDEX 01 00:00:00
FILE "21 - Rock and Roll Music.wav" WAVE
TRACK 21 AUDIO
TITLE "Rock and Roll Music"
PERFORMER "The Beach Boys"
INDEX 01 00:00:00
FILE "22 - Barbara Ann [2012 stereo mix].wav" WAVE
TRACK 22 AUDIO
TITLE "Barbara Ann [2012 stereo mix]"
PERFORMER "The Beach Boys"
INDEX 01 00:00:00
FILE "23 - All Summer Long [2007 stereo mix].wav" WAVE
TRACK 23 AUDIO
TITLE "All Summer Long [2007 stereo mix]"
PERFORMER "The Beach Boys"
INDEX 01 00:00:00
FILE "24 - Help Me, Rhonda [mono - single version].wav" WAVE
TRACK 24 AUDIO
TITLE "Help Me, Rhonda [mono - single version]"
PERFORMER "The Beach Boys"
INDEX 01 00:00:00
FILE "25 - Fun, Fun, Fun [mono].wav" WAVE
TRACK 25 AUDIO
TITLE "Fun, Fun, Fun [mono]"
PERFORMER "The Beach Boys"
INDEX 01 00:00:00
REM GENRE Rock
REM DATE 2012
REM DISCID 7E11C419
REM COMMENT "ExactAudioCopy v1.0b3"
PERFORMER "The Beach Boys"
TITLE "Fifty Big Ones: Greatest Hits (Disc 2)"
FILE "01 - Kokomo.wav" WAVE
TRACK 01 AUDIO
TITLE "Kokomo"
PERFORMER "The Beach Boys"
INDEX 01 00:00:00
FILE "02 - You''re So Good to Me [2007 stereo mix].wav" WAVE
TRACK 02 AUDIO
TITLE "You''re So Good to Me [2007 stereo mix]"
PERFORMER "The Beach Boys"
INDEX 01 00:00:00
FILE "03 - Wild Honey [2012 stereo mix].wav" WAVE
TRACK 03 AUDIO
TITLE "Wild Honey [2012 stereo mix]"
PERFORMER "The Beach Boys"
INDEX 01 00:00:00
FILE "04 - Darlin'' [2012 stereo mix].wav" WAVE
TRACK 04 AUDIO
TITLE "Darlin'' [2012 stereo mix]"
PERFORMER "The Beach Boys"
INDEX 01 00:00:00
FILE "05 - In My Room.wav" WAVE
TRACK 05 AUDIO
TITLE "In My Room"
PERFORMER "The Beach Boys"
INDEX 01 00:00:00
FILE "06 - All This Is That.wav" WAVE
TRACK 06 AUDIO
TITLE "All This Is That"
PERFORMER "The Beach Boys"
INDEX 01 00:00:00
FILE "07 - This Whole World.wav" WAVE
TRACK 07 AUDIO
TITLE "This Whole World"
PERFORMER "The Beach Boys"
INDEX 01 00:00:00
FILE "08 - Add Some Music to Your Day.wav" WAVE
TRACK 08 AUDIO
TITLE "Add Some Music to Your Day"
PERFORMER "The Beach Boys"
INDEX 01 00:00:00
FILE "09 - Cotton Fields (The Cotton Song) [single version - 2001 stereo mix].wav" WAVE
TRACK 09 AUDIO
TITLE "Cotton Fields (The Cotton Song) [single version - 2001 stereo mix]"
PERFORMER "The Beach Boys"
INDEX 01 00:00:00
FILE "10 - I Just Wasn''t Made for These Times [1996 stereo mix].wav" WAVE
TRACK 10 AUDIO
TITLE "I Just Wasn''t Made for These Times [1996 stereo mix]"
PERFORMER "The Beach Boys"
INDEX 01 00:00:00
FILE "11 - Sail On, Sailor.wav" WAVE
TRACK 11 AUDIO
TITLE "Sail On, Sailor"
PERFORMER "The Beach Boys"
INDEX 01 00:00:00
FILE "12 - Surf''s Up.wav" WAVE
TRACK 12 AUDIO
TITLE "Surf''s Up"
PERFORMER "The Beach Boys"
INDEX 01 00:00:00
FILE "13 - Friends.wav" WAVE
TRACK 13 AUDIO
TITLE "Friends"
PERFORMER "The Beach Boys"
INDEX 01 00:00:00
FILE "14 - Heroes and Villains [2012 stereo mix].wav" WAVE
TRACK 14 AUDIO
TITLE "Heroes and Villains [2012 stereo mix]"
PERFORMER "The Beach Boys"
INDEX 01 00:00:00
FILE "15 - I Can Hear Music.wav" WAVE
TRACK 15 AUDIO
TITLE "I Can Hear Music"
PERFORMER "The Beach Boys"
INDEX 01 00:00:00
FILE "16 - Good Timin''.wav" WAVE
TRACK 16 AUDIO
TITLE "Good Timin''"
PERFORMER "The Beach Boys"
INDEX 01 00:00:00
FILE "17 - California Saga (On My Way to Sunny Californ-i-a).wav" WAVE
TRACK 17 AUDIO
TITLE "California Saga (On My Way to Sunny Californ-i-a)"
PERFORMER "The Beach Boys"
INDEX 01 00:00:00
FILE "18 - Isn''t It Time [single version].wav" WAVE
TRACK 18 AUDIO
TITLE "Isn''t It Time [single version]"
PERFORMER "The Beach Boys"
INDEX 01 00:00:00
FILE "19 - Kiss Me, Baby [2000 stereo mix].wav" WAVE
TRACK 19 AUDIO
TITLE "Kiss Me, Baby [2000 stereo mix]"
PERFORMER "The Beach Boys"
INDEX 01 00:00:00
FILE "20 - That''s Why God Made the Radio.wav" WAVE
TRACK 20 AUDIO
TITLE "That''s Why God Made the Radio"
PERFORMER "The Beach Boys"
INDEX 01 00:00:00
FILE "21 - Forever.wav" WAVE
TRACK 21 AUDIO
TITLE "Forever"
PERFORMER "The Beach Boys"
INDEX 01 00:00:00
FILE "22 - God Only Knows [1996 stereo mix].wav" WAVE
TRACK 22 AUDIO
TITLE "God Only Knows [1996 stereo mix]"
PERFORMER "The Beach Boys"
INDEX 01 00:00:00
FILE "23 - Sloop John B [1996 stereo mix].wav" WAVE
TRACK 23 AUDIO
TITLE "Sloop John B [1996 stereo mix]"
PERFORMER "The Beach Boys"
INDEX 01 00:00:00
FILE "24 - Wouldn''t It Be Nice [2001 stereo mix].wav" WAVE
TRACK 24 AUDIO
TITLE "Wouldn''t It Be Nice [2001 stereo mix]"
PERFORMER "The Beach Boys"
INDEX 01 00:00:00
FILE "25 - Good Vibrations [mono].wav" WAVE
TRACK 25 AUDIO
TITLE "Good Vibrations [mono]"
PERFORMER "The Beach Boys"
INDEX 01 00:00:00

Отличный сборник без компрессии (видно на скриншоте) и с новым мастерингом. По сравнению с Sound of Summer просто подарок=) Долго тянул с забугорного сайта, качество понравилось, решил выложить сюда=) Оценка на Allmusic - 5 из 5-ти звёзд!
http://www.allmusic.com/album/fifty-big-ones-greatest-hits-mw0002412019


Трекер:  [ 27-Окт-2012 13:51 ]

  

Скачать .torrent

Размер .torrent файла 23 KB


Размер: 876 MB
Хэш (hash) релиза: ffdf96bd4b84cb4c026f7e9d244a0fcf1e663fce

Еще никто не оставлял запись к записи скачать торрент The Beach Boys - Fifty Big Ones: Greatest Hits - 2012, FLAC . Будь первым!

!Обратная связь