Скачать через торрент музыку Kim Lenz & Her Jaguars - The One And Only - 1999, бесплатно без регистрации torrent

Если у вас наблюдаются проблемы со скриншотами, переходом по ссылками, скачиванием торрентов - проблемы в блокировщике рекламы AdBlock. #хорошегоДня!


Статистика раздачи
Размер:  111 MB   |    Зарегистрирован:  4 года 9 месяцев   |    .torrent скачан:  23 раза   |   
Раздают:  1  
   
Загрузка...
 
Автор Сообщение

Galfimbul

avatar Galfimbul


Kim Lenz & Her Jaguars / The One And Only


Жанр: Neo Rockabilly
Страна-производитель диска: USA
Год издания: 1999
Издатель (лейбл): Hightone Records
Номер по каталогу: HCD8108
Страна: USA
Аудиокодек: FLAC (*.flac)
Тип рипа: image+.cue
Битрейт аудио: lossless
Продолжительность: 45:00
Источник (релизер): AUDELAS KINGDOM
Наличие сканов в содержимом раздачи: да
Треклист:
01. Howl At the Moon
02. One And Only
03. Somebody Lied
04. If You Don''t Like My Peaches (Don''t Shake My Tree)
05. Rock and Roll Guitar
06. Choctaw Boogie
07. Comin'' Back Strong
08. Dancing Me To Death
09. Crawlin'' Back
10. Truest Love
11. Fit to Be Tied
12. Stick ''Em Up Honey
13. Flame Of Love
14. You''ve Met Your Match
Exact Audio Copy V1.0 beta 2 from 29. April 2011

EAC extraction logfile from 23. October 2012, 19:01

Kim Lenz & Her Jaguars / The One And Only

Used drive : _NEC DVD_RW ND-3550A Adapter: 1 ID: 0

Read mode : SecureUtilize accurate stream : YesDefeat audio cache : YesMake use of C2 pointers : No

Read offset correction : 48Overread into Lead-In and Lead-Out : NoFill up missing offset samples with silence : YesDelete leading and trailing silent blocks : NoNull samples used in CRC calculations : YesUsed interface : Native Win32 interface for Win NT & 2000

Used output format : User Defined EncoderSelected bitrate : 768 kBit/sQuality : HighAdd ID3 tag : NoCommand line compressor : C:\Program Files\Exact Audio Copy\FLAC\FLAC.EXEAdditional command line options : -6 -V -T "ARTIST=%artist%" -T "TITLE=%title%" -T "ALBUM=%albumtitle%" -T "DATE=%year%" -T "TRACKNUMBER=%tracknr%" -T "GENRE=%genre%" -T "COMMENT=%comment%" -T "BAND=%albuminterpret%" -T "COMPOSER=%composer%" %haslyrics%--ta

TOC of the extracted CD

Track | Start | Length | Start sector | End sector --------------------------------------------------------- 1 | 0:00.00 | 2:47.43 | 0 | 12567 2 | 2:47.43 | 2:25.31 | 12568 | 23473 3 | 5:12.74 | 2:36.28 | 23474 | 35201 4 | 7:49.27 | 1:41.03 | 35202 | 42779 5 | 9:30.30 | 2:15.53 | 42780 | 52957 6 | 11:46.08 | 2:17.18 | 52958 | 63250 7 | 14:03.26 | 2:15.08 | 63251 | 73383 8 | 16:18.34 | 1:57.73 | 73384 | 82231 9 | 18:16.32 | 2:41.66 | 82232 | 94372 10 | 20:58.23 | 2:43.54 | 94373 | 106651 11 | 23:42.02 | 2:27.58 | 106652 | 117734 12 | 26:09.60 | 1:59.53 | 117735 | 126712 13 | 28:09.38 | 2:15.13 | 126713 | 136850 14 | 30:24.51 | 2:11.73 | 136851 | 146748

Range status and errors

Selected range

Filename D:\Muzika\Kim Lenz & Her Jaguars - The One And Only (1999)\Kim Lenz & Her Jaguars - The One And Only.wav

Peak level 98.8 % Extraction speed 4.5 X Range quality 100.0 % Test CRC 73F60B71 Copy CRC 73F60B71 Copy OK

No errors occurred

AccurateRip summary

Track 1 accurately ripped (confidence 2) [F3DE5E8F] (AR v1)Track 2 accurately ripped (confidence 2) [5C705E84] (AR v1)Track 3 accurately ripped (confidence 2) [1E32185E] (AR v1)Track 4 accurately ripped (confidence 2) [6E9474CC] (AR v1)Track 5 accurately ripped (confidence 2) [199733D3] (AR v1)Track 6 accurately ripped (confidence 2) [E6ABC50F] (AR v1)Track 7 accurately ripped (confidence 2) [694E687C] (AR v1)Track 8 accurately ripped (confidence 2) [5C1E6159] (AR v1)Track 9 accurately ripped (confidence 2) [4E0A1F1D] (AR v1)Track 10 accurately ripped (confidence 2) [0B0A5A9F] (AR v1)Track 11 accurately ripped (confidence 2) [E1A8AD9B] (AR v1)Track 12 accurately ripped (confidence 2) [F5AF872B] (AR v1)Track 13 accurately ripped (confidence 2) [8A3A03B3] (AR v1)Track 14 accurately ripped (confidence 2) [A3AF0CFB] (AR v1)

All tracks accurately ripped

End of status report

==== Log checksum 8B7D0EF859CEDCAFB4D5FFEC28BF36445D03EB8A1FBB82718519B17ABB5337F6 ====


Трекер:  [ 27-Окт-2012 13:49 ]

  

Скачать .torrent

Размер .torrent файла 18 KB


Размер: 111 MB
Хэш (hash) релиза: 55332e94aac562cdc3bff8503d5ef3c277729e79

Еще никто не оставлял запись к записи скачать торрент Kim Lenz & Her Jaguars - The One And Only - 1999, . Будь первым!

!Обратная связь