Скачать через торрент музыку The Web - Theraphosa Blondi бесплатно без регистрации torrent

Если у вас наблюдаются проблемы со скриншотами, переходом по ссылками, скачиванием торрентов - проблемы в блокировщике рекламы AdBlock. #хорошегоДня!


Статистика раздачи
Размер:  301 MB   |    Зарегистрирован:  4 года 9 месяцев   |    .torrent скачан:  21 раз   |   
Раздают:  1  
   
Загрузка...
 
Автор Сообщение

Galfimbul

avatar Galfimbul


The Web / Theraphosa Blondi (1970)

Жанр: Prog Rock
Год издания: 2008
Аудиокодек: FLAC (*.flac)
Тип рипа: image+.cue
Битрейт аудио: lossless
Продолжительность: 43:23
Источник (релизер): my disc
Наличие сканов в содержимом раздачи: да
Треклист:
01. Like The Man Said [0:07:06.27]
02. Sunshine Of Your Love [0:06:47.72]
03. ''til I Come Home Again Once More [0:03:01.45]
04. Bewala [0:02:31.37]
05. One Thousand Miles Away [0:04:29.38]
06. Blues For Two T''s [0:02:50.23]
07. Kilimanjaro [0:03:49.37]
08. Tobacco Road / America [0:05:39.01]
09. Afrodisiac-Bonus [0:03:20.03]
10. Newspecs-Bonus [0:03:47.70]
Exact Audio Copy V0.99 prebeta 4 from 23. January 2008

Отчёт EAC об извлечении, выполненном 23. октября 2012, 18:49

Web / Theraphosa Blondi

Дисковод: ASUS DRW-1814BL Adapter: 1 ID: 0

Режим чтения : ДостоверностьИспользование точного потока : ДаОтключение кэша аудио : ДаИспользование указателей C2 : Нет

Коррекция смещения при чтении : 6Способность читать области Lead-in и Lead-out : НетЗаполнение пропущенных сэмплов тишиной : ДаУдаление блоков с тишиной в начале и конце : НетПри вычислениях CRC использовались нулевые сэмплы : ДаИнтерфейс : Установленный внешний ASPI-интерфейс

Выходной формат : Пользовательский кодировщикВыбранный битрейт : 1024 kBit/sКачество : ВысокийДобавление ID3-тэга : НетУтилита сжатия : C:\Program Files\Exact Audio Copy\FLAC\FLAC.EXEДополнительные параметры : -6 -V -T "ARTIST=%a" -T "TITLE=%t" -T "ALBUM=%g" -T "DATE=%y" -T "TRACKNUMBER=%n" -T "GENRE=%m" -T "COMMENT=%e" %s -o %d

TOC извлечённого CD

Трек | Старт | Длительность | Начальный сектор | Конечный сектор --------------------------------------------------------------------- 1 | 0:00.00 | 7:06.27 | 0 | 31976 2 | 7:06.27 | 6:47.72 | 31977 | 62573 3 | 13:54.24 | 3:01.45 | 62574 | 76193 4 | 16:55.69 | 2:31.37 | 76194 | 87555 5 | 19:27.31 | 4:29.38 | 87556 | 107768 6 | 23:56.69 | 2:50.23 | 107769 | 120541 7 | 26:47.17 | 3:49.37 | 120542 | 137753 8 | 30:36.54 | 5:39.01 | 137754 | 163179 9 | 36:15.55 | 3:20.03 | 163180 | 178182 10 | 39:35.58 | 3:47.70 | 178183 | 195277

Характеристики диапазона извлечения и сообщения об ошибках

Выбранный диапазон

Имя файла D:\loSSleSS\web''70\Web - Theraphosa Blondi.wav

Пиковый уровень 100.0 % Качество диапазона 99.9 % CRC теста 5DC1DB43 CRC копии 5DC1DB43 Копирование... OK

Ошибок не произошло

AccurateRip: сводка

Трек 1 точное извлечение (доверие 2) [D5B3B790]Трек 2 точное извлечение (доверие 2) [13638358]Трек 3 точное извлечение (доверие 2) [3ABAE4C2]Трек 4 точное извлечение (доверие 2) [73B927C8]Трек 5 точное извлечение (доверие 2) [3674DE3E]Трек 6 точное извлечение (доверие 2) [4FDE5F0C]Трек 7 точное извлечение (доверие 2) [894986C4]Трек 8 точное извлечение (доверие 2) [15555D92]Трек 9 точное извлечение (доверие 2) [4A0F291E]Трек 10 точное извлечение (доверие 2) [D73C4BDF]

Все треки извлечены точно

Конец отчёта
John L. Watson - Vocals
Tom Harris - Sax, Flute
Tony Edwards - Guitar
John Eaton - Guitar
Dick Lee-Smith - Bass
Ken Beveridge - Drums
Lennie Wright - Vibes, Congas, Claves


Трекер:  [ 27-Окт-2012 13:49 ]

  

Скачать .torrent

Размер .torrent файла 13 KB


Размер: 301 MB
Хэш (hash) релиза: f8ee58166f52e4994ac9feee3203309a0b7657bd

Еще никто не оставлял запись к записи скачать торрент The Web - Theraphosa Blondi . Будь первым!

!Обратная связь